Loading...
Error
Регистрация  · 
Имя: Пароль:    
 ·  Забыли пароль?
Правила пользования ресурсом

Обладатель VIP статуса на 24 часа: nikola120
стань следующим читай правила
Сегодня идет свободное скачивание без начисления скачанного

(Pop) Нюша - Объединение - 2014, FLAC (image + .cue), lossless

Ответить на тему
 
Автор Сообщение

sergej644


post 04-Июн-2014 21:07

 


Нюша - Объединение


Страна: Россия
Жанр: Pop
Год выпуска: 2014
Формат: FLAC (image + .cue)
Битрейт аудио: lossless
Продолжительность: 01:14:56


01. Буду рада (04:06)
02. Только... (03:38)
03. Безответная (04:07)
04. Воспоминание (04:08)
05. Бред (04:04)
06. Тепло (03:36)
07. Наедине (03:57)
08. Это Новый год (03:39)
09. Цунами (04:10)
10. История странника (03:59)
11. Nothing To Fear (04:14)
12. You are my life (Дуэт с В.Шурочкиным) (03:55)
13. World needs your love (Дуэт с В.Шурочкиным) (04:36)
14. Только... (symphonic ver.) (03:35)
15. Ангел (ver. 2014) (03:57)
16. Наедине (Dj Alexey Romeo remix) (04:30)
17. Воспоминание (DJ Stylezz remix) (05:49)
18. Только... (Ivan KiT feat. NYUSHA Team, dance ver.) (04:48)


Код:

Exact Audio Copy V1.0 beta 3 from 29. August 2011

Отчёт EAC об извлечении, выполненном 19. мая 2014, 16:28

Нюша / Объединение

Дисковод: ASUS    DRW-1814BLT   Adapter: 2  ID: 0

Режим чтения                 : Достоверность
Использование точного потока : Да
Отключение кэша аудио        : Да
Использование указателей C2  : Нет

Коррекция смещения при чтении                     : 6
Способность читать области Lead-in и Lead-out     : Нет
Заполнение пропущенных сэмплов тишиной            : Да
Удаление блоков с тишиной в начале и конце        : Нет
При вычислениях CRC использовались нулевые сэмплы : Да
Интерфейс                                         : Установленный внешний ASPI-интерфейс

Выходной формат          : Пользовательский кодировщик
Выбранный битрейт        : 128 kBit/s
Качество                 : Высокий
Добавление ID3-тега      : Нет
Утилита сжатия           : C:\Program Files (x86)\FLAC\flac.exe
Дополнительные параметры : -V -8 -T "Date=%year%" -T "Genre=%genre%" %source%

TOC извлечённого CD

     Трек |   Старт  | Длительность | Начальный сектор | Конечный сектор
    ---------------------------------------------------------------------
       1  |  0:00.00 |    4:06.12   |           0      |      18461
       2  |  4:06.12 |    3:38.00   |       18462      |      34811
       3  |  7:44.12 |    4:07.24   |       34812      |      53360
       4  | 11:51.36 |    4:08.54   |       53361      |      72014
       5  | 16:00.15 |    4:04.23   |       72015      |      90337
       6  | 20:04.38 |    3:36.38   |       90338      |     106575
       7  | 23:41.01 |    3:57.14   |      106576      |     124364
       8  | 27:38.15 |    3:39.11   |      124365      |     140800
       9  | 31:17.26 |    4:10.69   |      140801      |     159619
      10  | 35:28.20 |    3:59.33   |      159620      |     177577
      11  | 39:27.53 |    4:14.44   |      177578      |     196671
      12  | 43:42.22 |    3:55.65   |      196672      |     214361
      13  | 47:38.12 |    4:36.20   |      214362      |     235081
      14  | 52:14.32 |    3:35.39   |      235082      |     251245
      15  | 55:49.71 |    3:57.72   |      251246      |     269092
      16  | 59:47.68 |    4:30.17   |      269093      |     289359
      17  | 64:18.10 |    5:49.50   |      289360      |     315584
      18  | 70:07.60 |    4:48.34   |      315585      |     337218

Характеристики диапазона извлечения и сообщения об ошибках

Выбранный диапазон

     Имя файла C:\Users\Panda\Documents\Нюша - Объединение\Нюша - Объединение.wav

     Пиковый уровень 100.0 %
     Скорость извлечения 9.6 X
     Качество диапазона 99.9 %
     CRC теста 43A49231
     CRC копии 43A49231
     Копирование... OK

Ошибок не произошло

Конец отчёта

Код:

REM GENRE Pop
REM DATE 2014
REM DISCID 00119012
REM COMMENT "ExactAudioCopy v1.0b3"
PERFORMER "Нюша"
TITLE "Объединение"
FILE "Нюша - Объединение.flac" WAVE
  TRACK 01 AUDIO
    TITLE "Буду рада"
    PERFORMER "Нюша"
    FLAGS DCP
    INDEX 01 00:00:00
  TRACK 02 AUDIO
    TITLE "Только..."
    PERFORMER "Нюша"
    FLAGS DCP
    INDEX 00 04:04:12
    INDEX 01 04:06:12
  TRACK 03 AUDIO
    TITLE "Безответная"
    PERFORMER "Нюша"
    FLAGS DCP
    INDEX 00 07:42:12
    INDEX 01 07:44:12
  TRACK 04 AUDIO
    TITLE "Воспоминание"
    PERFORMER "Нюша"
    FLAGS DCP
    INDEX 00 11:49:36
    INDEX 01 11:51:36
  TRACK 05 AUDIO
    TITLE "Бред"
    PERFORMER "Нюша"
    FLAGS DCP
    INDEX 00 15:58:15
    INDEX 01 16:00:15
  TRACK 06 AUDIO
    TITLE "Тепло"
    PERFORMER "Нюша"
    FLAGS DCP
    INDEX 00 20:02:38
    INDEX 01 20:04:38
  TRACK 07 AUDIO
    TITLE "Наедине"
    PERFORMER "Нюша"
    FLAGS DCP
    INDEX 00 23:39:01
    INDEX 01 23:41:01
  TRACK 08 AUDIO
    TITLE "Это Новый год"
    PERFORMER "Нюша"
    FLAGS DCP
    INDEX 00 27:36:15
    INDEX 01 27:38:15
  TRACK 09 AUDIO
    TITLE "Цунами"
    PERFORMER "Нюша"
    FLAGS DCP
    INDEX 00 31:15:26
    INDEX 01 31:17:26
  TRACK 10 AUDIO
    TITLE "История странника"
    PERFORMER "Нюша"
    FLAGS DCP
    INDEX 00 35:26:20
    INDEX 01 35:28:20
  TRACK 11 AUDIO
    TITLE "Nothing To Fear"
    PERFORMER "Нюша"
    FLAGS DCP
    INDEX 00 39:25:53
    INDEX 01 39:27:53
  TRACK 12 AUDIO
    TITLE "You are my life (Дуэт с В.Шурочкиным)"
    PERFORMER "Нюша"
    FLAGS DCP
    INDEX 00 43:40:22
    INDEX 01 43:42:22
  TRACK 13 AUDIO
    TITLE "World needs your love (Дуэт с В.Шурочкиным)"
    PERFORMER "Нюша"
    FLAGS DCP
    INDEX 00 47:36:12
    INDEX 01 47:38:12
  TRACK 14 AUDIO
    TITLE "Только... (symphonic ver.)"
    PERFORMER "Нюша"
    FLAGS DCP
    INDEX 00 52:12:32
    INDEX 01 52:14:32
  TRACK 15 AUDIO
    TITLE "Ангел (ver. 2014)"
    PERFORMER "Нюша"
    FLAGS DCP
    INDEX 00 55:47:71
    INDEX 01 55:49:71
  TRACK 16 AUDIO
    TITLE "Наедине (Dj Alexey Romeo remix)"
    PERFORMER "Нюша"
    FLAGS DCP
    INDEX 00 59:45:68
    INDEX 01 59:47:68
  TRACK 17 AUDIO
    TITLE "Воспоминание (DJ Stylezz remix)"
    PERFORMER "Нюша"
    FLAGS DCP
    INDEX 00 64:16:10
    INDEX 01 64:18:10
  TRACK 18 AUDIO
    TITLE "Только... (Ivan KiT feat. NYUSHA Team, dance ver.)"
    PERFORMER "Нюша"
    FLAGS DCP
    INDEX 00 70:05:60
    INDEX 01 70:07:60
Download

Скачать (бесплатно и на максимальной скорости)!

Как скачивать  ·   Что такое torrent (торрент)  ·   Рейтинг и ограничения

Сайт не распространяет и не хранит электронные версии произведений, а лишь предоставляет доступ к создаваемому пользователями каталогу ссылок на торрент-файлы, которые содержат только списки хеш-сумм


 
Показать сообщения:    
Ответить на тему

Текущее время: 15-Ноя 16:13

Часовой пояс: GMT + 3



Вы не можете начинать темы
Вы не можете отвечать на сообщения
Вы не можете редактировать свои сообщения
Вы не можете удалять свои сообщения
Вы не можете голосовать в опросах
Вы не можете прикреплять файлы к сообщениям
Вы не можете скачивать файлы



В начало страницы  •