Loading...
Error
Регистрация  · 
Имя: Пароль:    
 ·  Забыли пароль?
Правила пользования ресурсом

Сегодня идет свободное скачивание без начисления скачанного

Вор (Павел Чухрай) [1997, криминал, драма, HDTV 1080i]

Ответить на тему
 
Автор Сообщение

ilya15


post 27-Ноя-2023 20:27

 


Вор

Год выпуска: 1997
Страна: Россия, Франция / «НТВ-ПРОФИТ, Продюксьон Ле Пон, …»
Жанр: криминал, драма
Продолжительность: 01:29:43
Язык: Русский

Режиссер: Павел Чухрай

В ролях: Владимир Машков, Екатерина Редникова, Михаил Филипчук, Амалия Мордвинова, Лидия Савченко, Анна Штукатурова, Ольга Пашкова, Юрий Беляев, Анатолий Кощеев, Людмила Селянская, …
Описание: Осенью 1952 года шестилетний Санька и его молодая мама знакомятся в поезде с красавцем-военным по имени Толян. Катя влюбляется в Толяна, и все вместе они начинают жить одной семьей. Но на поверку этот бравый и обаятельный офицер оказывается вовсе не отставным военным, а профессиональным вором и мошенником.

Качество видео: HDTV 1080i
Формат видео: MKV
Видеокодек: H.264
Аудиокодек: MP2, AC3
Видео: 1920x1080, 25.000 fps, MPEG4 AVC, ~7092 kbps
Аудио #1: 48.0 kHz, MPEG Audio Layer 2, 2 ch, 192.00 kbps
Аудио #2: 48.0 kHz, AC3 Dolby Digital, 6 ch, 448.00 kbps
Cубтитры: русские

Код:

Общее
Уникальный идентификатор                 : 155715112527177081478698873884105394648 (0x7525A3C9FF19F8B516465CEE2B3E49D8)
Полное имя                               : D:\Вор.1997.HDTV.1080i-ylnian.mkv
Формат                                   : Matroska
Версия формата                           : Version 4
Размер файла                             : 4,85 Гбайт
Продолжительность                        : 1 ч. 29 м.
Общий поток                              : 7 736 Кбит/сек
Частота кадров                           : 50,000 кадров/сек
Дата кодирования                         : 2023-11-27 14:05:35 UTC
Программа кодирования                    : mkvmerge v80.0 ('Roundabout') 64-bit
Библиотека кодирования                   : libebml v1.4.4 + libmatroska v1.7.1

Видео
Идентификатор                            : 1
Формат                                   : AVC
Формат/Информация                        : Advanced Video Codec
Профиль формата                          : High@L4
Настройки формата                        : CABAC / 4 Ref Frames
Параметр CABAC формата                   : Да
Параметр RefFrames формата               : 4 кадра
Идентификатор кодека                     : V_MPEG4/ISO/AVC
Продолжительность                        : 1 ч. 29 м.
Битрейт                                  : 7 092 Кбит/сек
Ширина                                   : 1 920 пикселей
Высота                                   : 1 080 пикселей
Соотношение сторон                       : 16:9
Описание активного формата               : Letterbox 16:9 image
Режим частоты кадров                     : Переменный
Частота кадров                           : 50,000 кадров/сек
Частота кадров в оригинале               : 25,000 кадров/сек
Стандарт вещания                         : Component
Цветовое пространство                    : YUV
Субдискретизация насыщенности            : 4:2:0
Битовая глубина                          : 8 бит
Тип развёртки                            : Чересстрочная
Метод сохранения типа развёртки          : Раздельные поля
Порядок развёртки                        : Верхнее поле первое
Бит/(Пиксели*Кадры)                      : 0.068
Размер потока                            : 4,44 Гбайт (92%)
Язык                                     : Russian
Default                                  : Да
Forced                                   : Нет
Цветовой диапазон                        : Limited
Основные цвета                           : BT.709
Характеристики трансфера                 : BT.709
Коэффициенты матрицы                     : BT.709

Аудио #1
Идентификатор                            : 2
Формат                                   : MPEG Audio
Версия формата                           : Version 1
Профиль формата                          : Layer 2
Идентификатор кодека                     : A_MPEG/L2
Идентификатор кодека/Подсказка           : MP2
Продолжительность                        : 1 ч. 29 м.
Вид битрейта                             : Постоянный
Битрейт                                  : 192 Кбит/сек
Каналы                                   : 2 канала
Частота                                  : 48,0 КГц
Частота кадров                           : 41,667 кадра/сек (1152 SPF)
Метод сжатия                             : С потерями
Размер потока                            : 123 Мбайт (2%)
Язык                                     : Russian
Default                                  : Да
Forced                                   : Нет

Аудио #2
Идентификатор                            : 3
Формат                                   : AC-3
Формат/Информация                        : Audio Coding 3
Коммерческое название                    : Dolby Digital
Идентификатор кодека                     : A_AC3
Продолжительность                        : 1 ч. 29 м.
Вид битрейта                             : Постоянный
Битрейт                                  : 448 Кбит/сек
Каналы                                   : 6 каналов
Channel layout                           : L R C LFE Ls Rs
Частота                                  : 48,0 КГц
Частота кадров                           : 31,250 кадров/сек (1536 SPF)
Метод сжатия                             : С потерями
Размер потока                            : 287 Мбайт (6%)
Язык                                     : Russian
Service kind                             : Complete Main
Default                                  : Нет
Forced                                   : Нет

Текст
Идентификатор                            : 4
Формат                                   : UTF-8
Идентификатор кодека                     : S_TEXT/UTF8
Идентификатор кодека/Информация          : UTF-8 Plain Text
Продолжительность                        : 1 ч. 29 м.
Битрейт                                  : 71 бит/сек
Частота кадров                           : 0,145 кадр/сек
Count of elements                        : 775
Размер потока                            : 46,8 Кбайт (0%)
Язык                                     : Russian
Default                                  : Нет
Forced                                   : Нет


Download

Скачать (бесплатно и на максимальной скорости)!

Как скачивать  ·   Что такое torrent (торрент)  ·   Рейтинг и ограничения

Сайт не распространяет и не хранит электронные версии произведений, а лишь предоставляет доступ к создаваемому пользователями каталогу ссылок на торрент-файлы, которые содержат только списки хеш-сумм


 
Показать сообщения:    
Ответить на тему

Текущее время: 02-Мар 00:48

Часовой пояс: GMT + 3



Вы не можете начинать темы
Вы не можете отвечать на сообщения
Вы не можете редактировать свои сообщения
Вы не можете удалять свои сообщения
Вы не можете голосовать в опросах
Вы не можете прикреплять файлы к сообщениям
Вы не можете скачивать файлы



В начало страницы  •