Loading...
Error
Регистрация  · 
Имя: Пароль:    
 ·  Забыли пароль?
Правила пользования ресурсом

Сегодня идет свободное скачивание без начисления скачанного

Дикие лошади - сказки Пушты / Wild Horses: A Tale from the Puszta (Золтан Терк) [2021, документальный, HDTV 1080i] VO

Ответить на тему
 
Автор Сообщение

kneht


post 04-Июн-2023 21:24

 



Дикие лошади - сказки Пушты / Wild Horses: A Tale from the Puszta


Год выпуска: 2021
Страна: Венгрия / «Azara Film, Doclights»
Жанр: документальный
Продолжительность: 00:52:59
Перевод: Профессиональный одноголосый (1 ТВЧ)

Режиссер: Золтан Терк

В ролях: Дёрте Лысевски, Каролина Мэсси, Лия Покорны, …
Описание: Проект о жизни лошадей на одной из венгерских равнин.В самом сердце Европы есть равнины, которые стали домом для лошадей. Пушта - великая равнина в Венгрии; в этом море трав нашел свой новый дом самый многочисленный табун лошадей на Земле. Это история о диких лошадях Венгрии.

Качество видео: HDTV 1080i
Формат видео: MPEG-TS
Видеокодек: H.264
Аудиокодек: MP2
Видео: 1920x1080, 25.000 fps, AVC, ~6774 kbps
Аудио: 48.0 kHz, MPEG Audio Layer 2, 2 ch, 192 kbps
Cубтитры: русские

Код:

Complete name :F:\Наладки\Дикие лошади_сказки Пушты.ts
Format                      : MPEG-TS
File size                   : 2.71 GiB
Duration                    : 52 min 59 s
Overall bit rate mode       : Variable
Overall bit rate            : 7 330 kb/s

Video
ID                          : 3711 (0xE7F)
Menu ID                     : 37001 (0x9089)
Format                      : AVC
Format/Info                 : Advanced Video Codec
Format profile              : Main@L4
Format settings             : CABAC / 3 Ref Frames
Format settings, CABAC      : Yes
Format settings, Reference  : 3 frames
Codec ID                    : 27
Duration                    : 52 min 59 s
Bit rate                    : 6 774 kb/s
Width                       : 1 920 pixels
Height                      : 1 080 pixels
Display aspect ratio        : 16:9
Frame rate                  : 25.000 FPS
Color space                 : YUV
Chroma subsampling          : 4:2:0
Bit depth                   : 8 bits
Scan type                   : Interlaced
Scan type, store method     : Separated fields
Scan order                  : Top Field First
Bits/(Pixel*Frame)          : 0.131
Stream size                 : 2.51 GiB (92%)
Color range                 : Limited
Color primaries             : BT.709
Transfer characteristics    : BT.709
Matrix coefficients         : BT.709

Audio
ID                          : 3712 (0xE80)
Menu ID                     : 37001 (0x9089)
Format                      : MPEG Audio
Format version              : Version 1
Format profile              : Layer 2
Codec ID                    : 3
Duration                    : 52 min 59 s
Bit rate mode               : Constant
Bit rate                    : 192 kb/s
Channel(s)                  : 2 channels
Sampling rate               : 48.0 kHz
Frame rate                  : 41.667 FPS (1152 SPF)
Compression mode            : Lossy
Delay relative to video     : -120 ms
Stream size                 : 72.8 MiB (3%)
Language                    : Russian

Text
ID                          : 3714 (0xE82)-888
Menu ID                     : 37001 (0x9089)
Format                      : Teletext Subtitle
Language                    : Russian


Download

Скачать (бесплатно и на максимальной скорости)!

Как скачивать  ·   Что такое torrent (торрент)  ·   Рейтинг и ограничения

Сайт не распространяет и не хранит электронные версии произведений, а лишь предоставляет доступ к создаваемому пользователями каталогу ссылок на торрент-файлы, которые содержат только списки хеш-сумм


 
Показать сообщения:    
Ответить на тему

Текущее время: 29-Фев 20:40

Часовой пояс: GMT + 3



Вы не можете начинать темы
Вы не можете отвечать на сообщения
Вы не можете редактировать свои сообщения
Вы не можете удалять свои сообщения
Вы не можете голосовать в опросах
Вы не можете прикреплять файлы к сообщениям
Вы не можете скачивать файлы



В начало страницы  •