Loading...
Error
Регистрация  · 
Имя: Пароль:    
 ·  Забыли пароль?
Правила пользования ресурсом

Сегодня идет свободное скачивание без начисления скачанного

(Classic Rock, Glam Rock, Hard Rock) Sweet - The Lost Singles - 2017 [FLAC, image +.cue, lossless]

Ответить на тему
 
Автор Сообщение

sergej644


post 07-Янв-2018 19:39

 


Sweet - The Lost Singles


Год издания: 2017
Страна: UK
Жанр: Classic Rock, Glam Rock, Hard Rock
Продолжительность: 01:23:31
Лейбл издания: RCA / Sony Music
Страна-выпуска диска: EU
Номер по каталогу: 88985480852
Формат: FLAC
Битрейт аудио: Lossless
Тип рипа: image +.cue
Наличие сканов в содержимом раздачи: да

Sweet (до 1974 года The Sweet) — британская рок-группа, образовавшаяся в Лондоне, Англия, в 1968 году. Первую известность Sweet получили в начале 1970-х годов благодаря серии бабблгам-синглов, затем — на своём творческом пике — стали частью британского глэм-рок-движения; наконец, утяжелили звук и приблизились к хард-роковому звучанию. Альбомы Sweet не становились хитами, но 11 синглов группы входили в первую десятку UK Singles Chart; один из них, «Blockbuster» (1973), поднимался на вершину хит-парада.
В данный сборник, являющийся частью 9-ти дискового бокс-сета "Sensational Sweet - Chapter One: The Wild Bunch" вощли как знаменитые, так и не очень сингловые композиции группы.
01. Stairway To The Stars (3:04)
02. Why Don't You Do It To Me (3:12)
03. Funk It Up (Disco Mix) (5:28)
04. A Distinct Lack Of Ancient (4:06)
05. Action (Single Version) (3:18)
06. Fox On The Run (Single Version) (3:22)
07. Miss Demeanor (3:27)
08. Someone Else Will (3:26)
09. Burn On The Flame (3:36)
10. Teenage Rampage (3:35)
11. Own Up, Take A Look At Yourself (3:59)
12. The Ballroom Blitz (4:02)
13. Rock 'n' Roll Disgrace (3:51)
14. Hell Raiser (3:17)
15. Burning (4:05)
16. Block Buster! (3:12)
17. Need A Lot Of Lovin' (3:01)
18. Wig Wam Bam (3:01)
19. New York Connection (3:36)
20. Little Willy (3:14)
21. Man From Mecca (2:47)
22. Poppa Joe (3:06)
23. Alexander Graham Bell (2:57)
24. You're Not Wrong For Loving Me (2:49)

Код:

Exact Audio Copy V1.3 from 2. September 2016

EAC extraction logfile from 22. December 2017, 9:03

Sweet / The Lost Singles

Used drive  : ATAPI   iHAS122   C   Adapter: 1  ID: 0

Read mode               : Secure
Utilize accurate stream : Yes
Defeat audio cache      : Yes
Make use of C2 pointers : No

Read offset correction                      : 6
Overread into Lead-In and Lead-Out          : No
Fill up missing offset samples with silence : Yes
Delete leading and trailing silent blocks   : No
Null samples used in CRC calculations       : Yes
Used interface                              : Native Win32 interface for Win NT & 2000

Used output format : Internal WAV Routines
Sample format      : 44.100 Hz; 16 Bit; Stereo

TOC of the extracted CD

     Track |   Start  |  Length  | Start sector | End sector
    ---------------------------------------------------------
        1  |  0:00.00 |  3:03.50 |         0    |    13774
        2  |  3:03.50 |  3:12.09 |     13775    |    28183
        3  |  6:15.59 |  5:27.58 |     28184    |    52766
        4  | 11:43.42 |  4:05.66 |     52767    |    71207
        5  | 15:49.33 |  3:18.30 |     71208    |    86087
        6  | 19:07.63 |  3:22.19 |     86088    |   101256
        7  | 22:30.07 |  3:27.09 |    101257    |   116790
        8  | 25:57.16 |  3:25.39 |    116791    |   132204
        9  | 29:22.55 |  3:36.27 |    132205    |   148431
       10  | 32:59.07 |  3:34.64 |    148432    |   164545
       11  | 36:33.71 |  3:58.43 |    164546    |   182438
       12  | 40:32.39 |  4:01.41 |    182439    |   200554
       13  | 44:34.05 |  3:51.14 |    200555    |   217893
       14  | 48:25.19 |  3:17.15 |    217894    |   232683
       15  | 51:42.34 |  4:05.02 |    232684    |   251060
       16  | 55:47.36 |  3:12.17 |    251061    |   265477
       17  | 58:59.53 |  3:01.25 |    265478    |   279077
       18  | 62:01.03 |  3:01.08 |    279078    |   292660
       19  | 65:02.11 |  3:36.31 |    292661    |   308891
       20  | 68:38.42 |  3:13.73 |    308892    |   323439
       21  | 71:52.40 |  2:47.02 |    323440    |   335966
       22  | 74:39.42 |  3:06.16 |    335967    |   349932
       23  | 77:45.58 |  2:57.07 |    349933    |   363214
       24  | 80:42.65 |  2:48.48 |    363215    |   375862

Range status and errors

Selected range

     Filename C:\Users\London\Desktop\Sweet - The Lost Singles.wav

     Peak level 99.1 %
     Extraction speed 9.8 X
     Range quality 100.0 %
     Test CRC 61138B61
     Copy CRC 61138B61
     Copy OK

No errors occurred

AccurateRip summary

Track  1  not present in database
Track  2  not present in database
Track  3  not present in database
Track  4  not present in database
Track  5  not present in database
Track  6  not present in database
Track  7  not present in database
Track  8  not present in database
Track  9  not present in database
Track 10  not present in database
Track 11  not present in database
Track 12  not present in database
Track 13  not present in database
Track 14  not present in database
Track 15  not present in database
Track 16  not present in database
Track 17  not present in database
Track 18  not present in database
Track 19  not present in database
Track 20  not present in database
Track 21  not present in database
Track 22  not present in database
Track 23  not present in database
Track 24  not present in database

None of the tracks are present in the AccurateRip database

End of status report

---- CUETools DB Plugin V2.1.6

[CTDB TOCID: VDyJ2lfZKHfp064sI6BqUfCjCp8-] found
Submit result: already submitted
Track | CTDB Status
  1   | (19/19) Accurately ripped
  2   | (19/19) Accurately ripped
  3   | (19/19) Accurately ripped
  4   | (19/19) Accurately ripped
  5   | (19/19) Accurately ripped
  6   | (19/19) Accurately ripped
  7   | (19/19) Accurately ripped
  8   | (19/19) Accurately ripped
  9   | (19/19) Accurately ripped
 10   | (19/19) Accurately ripped
 11   | (19/19) Accurately ripped
 12   | (19/19) Accurately ripped
 13   | (19/19) Accurately ripped
 14   | (19/19) Accurately ripped
 15   | (19/19) Accurately ripped
 16   | (19/19) Accurately ripped
 17   | (19/19) Accurately ripped
 18   | (19/19) Accurately ripped
 19   | (19/19) Accurately ripped
 20   | (19/19) Accurately ripped
 21   | (19/19) Accurately ripped
 22   | (19/19) Accurately ripped
 23   | (19/19) Accurately ripped
 24   | (19/19) Accurately ripped

Код:

REM GENRE Rock
REM DATE 2017
REM DISCID 6B139318
REM COMMENT ExactAudioCopy v1.3
PERFORMER "Sweet"
TITLE "The Lost Singles"
FILE "Sweet - The Lost Singles.flac" WAVE
  TRACK 01 AUDIO
    TITLE "Stairway To The Stars"
    INDEX 01 00:00:00
  TRACK 02 AUDIO
    TITLE "Why Don't You Do It To Me"
    INDEX 00 03:02:64
    INDEX 01 03:03:50
  TRACK 03 AUDIO
    TITLE "Funk It Up (Disco Mix)"
    INDEX 00 06:15:29
    INDEX 01 06:15:59
  TRACK 04 AUDIO
    TITLE "A Distinct Lack Of Ancient"
    INDEX 00 11:42:41
    INDEX 01 11:43:42
  TRACK 05 AUDIO
    TITLE "Action (Single Version)"
    INDEX 00 15:49:01
    INDEX 01 15:49:33
  TRACK 06 AUDIO
    TITLE "Fox On The Run (Single Version)"
    INDEX 00 19:07:13
    INDEX 01 19:07:63
  TRACK 07 AUDIO
    TITLE "Miss Demeanor"
    INDEX 01 22:30:07
  TRACK 08 AUDIO
    TITLE "Someone Else Will"
    INDEX 01 25:57:16
  TRACK 09 AUDIO
    TITLE "Burn On The Flame"
    INDEX 00 29:21:16
    INDEX 01 29:22:55
  TRACK 10 AUDIO
    TITLE "Teenage Rampage"
    INDEX 00 32:58:33
    INDEX 01 32:59:07
  TRACK 11 AUDIO
    TITLE "Own Up, Take A Look At Yourself"
    INDEX 00 36:33:20
    INDEX 01 36:33:71
  TRACK 12 AUDIO
    TITLE "The Ballroom Blitz"
    INDEX 00 40:31:50
    INDEX 01 40:32:39
  TRACK 13 AUDIO
    TITLE "Rock 'n' Roll Disgrace"
    INDEX 00 44:33:61
    INDEX 01 44:34:05
  TRACK 14 AUDIO
    TITLE "Hell Raiser"
    INDEX 01 48:25:19
  TRACK 15 AUDIO
    TITLE "Burning"
    INDEX 00 51:42:02
    INDEX 01 51:42:34
  TRACK 16 AUDIO
    TITLE "Block Buster!"
    INDEX 00 55:47:07
    INDEX 01 55:47:36
  TRACK 17 AUDIO
    TITLE "Need A Lot Of Lovin'"
    INDEX 00 58:59:48
    INDEX 01 58:59:53
  TRACK 18 AUDIO
    TITLE "Wig Wam Bam"
    INDEX 00 62:00:36
    INDEX 01 62:01:03
  TRACK 19 AUDIO
    TITLE "New York Connection"
    INDEX 00 65:02:05
    INDEX 01 65:02:11
  TRACK 20 AUDIO
    TITLE "Little Willy"
    INDEX 00 68:38:04
    INDEX 01 68:38:42
  TRACK 21 AUDIO
    TITLE "Man From Mecca"
    INDEX 00 71:52:36
    INDEX 01 71:52:40
  TRACK 22 AUDIO
    TITLE "Poppa Joe"
    INDEX 00 74:39:11
    INDEX 01 74:39:42
  TRACK 23 AUDIO
    TITLE "Alexander Graham Bell"
    INDEX 00 77:45:34
    INDEX 01 77:45:58
  TRACK 24 AUDIO
    TITLE "You're Not Wrong For Loving Me"
    INDEX 00 80:42:59
    INDEX 01 80:42:65


Download

Скачать (бесплатно и на максимальной скорости)!

Как скачивать  ·   Что такое torrent (торрент)  ·   Рейтинг и ограничения

Сайт не распространяет и не хранит электронные версии произведений, а лишь предоставляет доступ к создаваемому пользователями каталогу ссылок на торрент-файлы, которые содержат только списки хеш-сумм


 
Показать сообщения:    
Ответить на тему

Текущее время: 20-Июн 12:42

Часовой пояс: GMT + 3



Вы не можете начинать темы
Вы не можете отвечать на сообщения
Вы не можете редактировать свои сообщения
Вы не можете удалять свои сообщения
Вы не можете голосовать в опросах
Вы не можете прикреплять файлы к сообщениям
Вы не можете скачивать файлы



В начало страницы  •