Loading...
Error
Регистрация  · 
Имя: Пароль:    
 ·  Забыли пароль?
Правила пользования ресурсом

Сегодня идет свободное скачивание без начисления скачанного

(Hard Rock) Rainbow - Memories in Rock - Live In Germany (2CD) - 2016 [WavPack, image +.cue, lossless]

Ответить на тему
 
Автор Сообщение

sergej644


post 23-Ноя-2016 02:04

 


Rainbow - Memories in Rock - Live In Germany (2CD)


Год издания: 2016
Страна: England
Жанр: Hard Rock
Продолжительность: 02:17:14
Лейбл издания: Eagle Vision
Страна-выпуска диска: USA
Номер по каталогу: EVB335579
Формат: WavPack
Битрейт аудио: Lossless
Тип рипа: image +.cue
Наличие сканов в содержимом раздачи: да

01.Highway Star(7:11)
02.Spotlight Kid(5:58)
03.Mistreated(9:27)
04.16th Century Greensleeves(7:15)
05.Since You Been Gone(2:51)
06.Man On The Silver Mountain(5:18)
07.Catch The Rainbow(8:48)
08.Difficult To Cure (Beethoven's Ninth)(12:46)
09.Perfect Strangers(6:50)
10.Stargazer(10:14)
01.Long Live Rock 'N' Roll(6:50)
02.Child In Time_Woman From Tokyo(11:03)
03.Black Night(6:42)
04.Smoke On The Water(6:59)
05.Spotlight Kid(5:35)
06.Man On The Silver Mountain(5:56)
07.Long Live Rock 'N' Roll(8:18)
08.Stargazer(9:12)

Код:

Exact Audio Copy V1.2 from 12. August 2016

EAC extraction logfile from 19. November 2016, 19:42

Rainbow / Memories in Rock - Live In Germany (CD1)

Used drive  : PIONEER DVD-RW DVR-220RS   Adapter: 1  ID: 0

Read mode               : Secure
Utilize accurate stream : Yes
Defeat audio cache      : Yes
Make use of C2 pointers : No

Read offset correction                      : 6
Overread into Lead-In and Lead-Out          : No
Fill up missing offset samples with silence : Yes
Delete leading and trailing silent blocks   : No
Null samples used in CRC calculations       : Yes
Used interface                              : Native Win32 interface for Win NT & 2000

Used output format              : User Defined Encoder
Selected bitrate                : 768 kBit/s
Quality                         : High
Add ID3 tag                     : No
Command line compressor         : C:\Program Files (x86)\Exact Audio Copy\Wavpack\wavpack.exe
Additional command line options : -hm %source% %dest%

TOC of the extracted CD

     Track |   Start  |  Length  | Start sector | End sector
    ---------------------------------------------------------
        1  |  0:00.00 |  7:11.02 |         0    |    32326
        2  |  7:11.02 |  5:58.11 |     32327    |    59187
        3  | 13:09.13 |  9:27.37 |     59188    |   101749
        4  | 22:36.50 |  7:15.00 |    101750    |   134374
        5  | 29:51.50 |  2:51.09 |    134375    |   147208
        6  | 32:42.59 |  5:18.02 |    147209    |   171060
        7  | 38:00.61 |  8:48.25 |    171061    |   210685
        8  | 46:49.11 | 12:45.71 |    210686    |   268131
        9  | 59:35.07 |  6:50.09 |    268132    |   298890
       10  | 66:25.16 | 10:13.62 |    298891    |   344927

Range status and errors

Selected range

     Filename C:\_NL+_\_CD\Rainbow - Memories in Rock - Live In Germany (CD1).wav

     Peak level 100.0 %
     Extraction speed 8.6 X
     Range quality 100.0 %
     Test CRC 8F8CD862
     Copy CRC 8F8CD862
     Copy OK

No errors occurred

AccurateRip summary

Track  1  not present in database
Track  2  not present in database
Track  3  not present in database
Track  4  not present in database
Track  5  not present in database
Track  6  not present in database
Track  7  not present in database
Track  8  not present in database
Track  9  not present in database
Track 10  not present in database

None of the tracks are present in the AccurateRip database

End of status report

---- CUETools DB Plugin V2.1.6

[CTDB TOCID: Y4iaiFlwxnsG60rWuqnfAbV7pjM-] found
Submit result: Y4iaiFlwxnsG60rWuqnfAbV7pjM- has been confirmed
Track | CTDB Status
  1   | (12/12) Accurately ripped
  2   | (12/12) Accurately ripped
  3   | (12/12) Accurately ripped
  4   | (12/12) Accurately ripped
  5   | (12/12) Accurately ripped
  6   | (12/12) Accurately ripped
  7   | (12/12) Accurately ripped
  8   | (12/12) Accurately ripped
  9   | (12/12) Accurately ripped
 10   | (12/12) Accurately ripped

Код:

Exact Audio Copy V1.2 from 12. August 2016

EAC extraction logfile from 19. November 2016, 20:55

Rainbow / Memories in Rock - Live In Germany (CD2)

Used drive  : PIONEER DVD-RW DVR-220RS   Adapter: 1  ID: 0

Read mode               : Secure
Utilize accurate stream : Yes
Defeat audio cache      : Yes
Make use of C2 pointers : No

Read offset correction                      : 6
Overread into Lead-In and Lead-Out          : No
Fill up missing offset samples with silence : Yes
Delete leading and trailing silent blocks   : No
Null samples used in CRC calculations       : Yes
Used interface                              : Native Win32 interface for Win NT & 2000

Used output format              : User Defined Encoder
Selected bitrate                : 768 kBit/s
Quality                         : High
Add ID3 tag                     : No
Command line compressor         : C:\Program Files (x86)\Exact Audio Copy\Wavpack\wavpack.exe
Additional command line options : -hm %source% %dest%

TOC of the extracted CD

     Track |   Start  |  Length  | Start sector | End sector
    ---------------------------------------------------------
        1  |  0:00.00 |  6:50.19 |         0    |    30768
        2  |  6:50.19 | 11:03.07 |     30769    |    80500
        3  | 17:53.26 |  6:41.42 |     80501    |   110617
        4  | 24:34.68 |  6:59.29 |    110618    |   142071
        5  | 31:34.22 |  5:34.60 |    142072    |   167181
        6  | 37:09.07 |  5:55.73 |    167182    |   193879
        7  | 43:05.05 |  8:18.20 |    193880    |   231249
        8  | 51:23.25 |  9:11.39 |    231250    |   272613

Range status and errors

Selected range

     Filename C:\_NL+_\_CD\Rainbow - Memories in Rock - Live In Germany (CD2).wav

     Peak level 100.0 %
     Extraction speed 1.9 X
     Range quality 100.0 %
     Test CRC 1D515409
     Copy CRC 1D515409
     Copy OK

No errors occurred

AccurateRip summary

Track  1  not present in database
Track  2  not present in database
Track  3  not present in database
Track  4  not present in database
Track  5  not present in database
Track  6  not present in database
Track  7  not present in database
Track  8  not present in database

None of the tracks are present in the AccurateRip database

End of status report

---- CUETools DB Plugin V2.1.6

[CTDB TOCID: cwDKc6MD1NF1AvxCPLh4_3dOUd8-] found
Submit result: cwDKc6MD1NF1AvxCPLh4_3dOUd8- has been confirmed
Track | CTDB Status
  1   | (5/5) Accurately ripped
  2   | (5/5) Accurately ripped
  3   | (5/5) Accurately ripped
  4   | (5/5) Accurately ripped
  5   | (5/5) Accurately ripped
  6   | (5/5) Accurately ripped
  7   | (5/5) Accurately ripped
  8   | (5/5) Accurately ripped

Код:

REM GENRE "Rock"
REM DATE 2016
REM DISCID A111F70A
REM COMMENT "ExactAudioCopy v1.2"
REM COMPOSER ""
PERFORMER "Rainbow"
TITLE "Memories in Rock - Live In Germany (CD1)"
FILE "Rainbow - Memories in Rock - Live In Germany (CD1)(2016).wv" WAVE
  TRACK 01 AUDIO
    TITLE "Highway Star"
    PERFORMER "Rainbow"
    REM COMPOSER ""
    INDEX 01 00:00:00
  TRACK 02 AUDIO
    TITLE "Spotlight Kid"
    PERFORMER "Rainbow"
    REM COMPOSER ""
    INDEX 01 07:11:02
  TRACK 03 AUDIO
    TITLE "Mistreated"
    PERFORMER "Rainbow"
    REM COMPOSER ""
    INDEX 01 13:09:13
  TRACK 04 AUDIO
    TITLE "16th Century Greensleeves"
    PERFORMER "Rainbow"
    REM COMPOSER ""
    INDEX 01 22:36:50
  TRACK 05 AUDIO
    TITLE "Since You Been Gone"
    PERFORMER "Rainbow"
    REM COMPOSER ""
    INDEX 01 29:51:50
  TRACK 06 AUDIO
    TITLE "Man On The Silver Mountain"
    PERFORMER "Rainbow"
    REM COMPOSER ""
    INDEX 01 32:42:59
  TRACK 07 AUDIO
    TITLE "Catch The Rainbow"
    PERFORMER "Rainbow"
    REM COMPOSER ""
    INDEX 01 38:00:61
  TRACK 08 AUDIO
    TITLE "Difficult To Cure (Beethoven's Ninth)"
    PERFORMER "Rainbow"
    REM COMPOSER ""
    INDEX 01 46:49:11
  TRACK 09 AUDIO
    TITLE "Perfect Strangers"
    PERFORMER "Rainbow"
    REM COMPOSER ""
    INDEX 01 59:35:07
  TRACK 10 AUDIO
    TITLE "Stargazer"
    PERFORMER "Rainbow"
    REM COMPOSER ""
    INDEX 01 66:25:16

Код:

REM GENRE "Rock"
REM DATE 2016
REM DISCID 6E0E3208
REM COMMENT "ExactAudioCopy v1.2"
REM COMPOSER ""
PERFORMER "Rainbow"
TITLE "Memories in Rock - Live In Germany (CD2)"
FILE "Rainbow - Memories in Rock - Live In Germany (CD2)(2016).wv" WAVE
  TRACK 01 AUDIO
    TITLE "Long Live Rock 'N' Roll"
    PERFORMER "Rainbow"
    REM COMPOSER ""
    INDEX 01 00:00:00
  TRACK 02 AUDIO
    TITLE "Child In Time_Woman From Tokyo"
    PERFORMER "Rainbow"
    REM COMPOSER ""
    INDEX 01 06:50:19
  TRACK 03 AUDIO
    TITLE "Black Night"
    PERFORMER "Rainbow"
    REM COMPOSER ""
    INDEX 01 17:53:26
  TRACK 04 AUDIO
    TITLE "Smoke On The Water"
    PERFORMER "Rainbow"
    REM COMPOSER ""
    INDEX 01 24:34:68
  TRACK 05 AUDIO
    TITLE "Spotlight Kid"
    PERFORMER "Rainbow"
    REM COMPOSER ""
    INDEX 01 31:34:22
  TRACK 06 AUDIO
    TITLE "Man On The Silver Mountain"
    PERFORMER "Rainbow"
    REM COMPOSER ""
    INDEX 01 37:09:07
  TRACK 07 AUDIO
    TITLE "Long Live Rock 'N' Roll"
    PERFORMER "Rainbow"
    REM COMPOSER ""
    INDEX 01 43:05:05
  TRACK 08 AUDIO
    TITLE "Stargazer"
    PERFORMER "Rainbow"
    REM COMPOSER ""
    INDEX 01 51:23:25
Впервые за 19 лет, первое выступление легендарного гитариста Ричи Блэкмора и его возрожденного коллектива Ritchie Blackmore's Rainbow, которое состоялось в июне 2016 года на фестивале Monsters of Rock в Германии. Группа сыграла три концерта в Европе: два в Германии и один в Англии. Записи из двух немецких шоу в Loreley и Stuttgart составляют этот живой альбом Memories In Rock, сочетая классические треки из Deep Purple и Rainbow. Группа играла великолепно и Ритчи Блэкмор доказал, что он остается одним из лучших гитаристов всех времен. Вокалистом в новом составе Rainbow стал участник испанской группы Lords Of Black Ронни Ромеро.
Ritchie Blackmore — guitar
Ronnie Romero — vocals
David Keith — drums
Bob Nouveau — bass
Jens Johansson — keyboards
Candice Night — backing vocals
Lady Lynn — backing vocals


Download

Скачать (бесплатно и на максимальной скорости)!

Как скачивать  ·   Что такое torrent (торрент)  ·   Рейтинг и ограничения

Сайт не распространяет и не хранит электронные версии произведений, а лишь предоставляет доступ к создаваемому пользователями каталогу ссылок на торрент-файлы, которые содержат только списки хеш-сумм


 
Показать сообщения:    
Ответить на тему

Текущее время: 17-Дек 20:36

Часовой пояс: GMT + 3



Вы не можете начинать темы
Вы не можете отвечать на сообщения
Вы не можете редактировать свои сообщения
Вы не можете удалять свои сообщения
Вы не можете голосовать в опросах
Вы не можете прикреплять файлы к сообщениям
Вы не можете скачивать файлы



В начало страницы  •