Loading...
Error
Регистрация  · 
Имя: Пароль:    
 ·  Забыли пароль?
Правила пользования ресурсом

Сегодня идет свободное скачивание без начисления скачанного

(Symphonic Power Metal, Gothic Rock, Neo Classic)Tarja - Luna Park Ride (2CD) - 2015 [FLAC, image+cue, lossless]

Ответить на тему
 
Автор Сообщение

sergej644


post 03-Авг-2016 10:27

 


Tarja - Luna Park Ride (2CD)


Год издания: 2015
Страна: Finland
Жанр: Symphonic Power Metal, Gothic Rock, Neo Classic
Продолжительность: 02:18:09
Лейбл издания: EAR Music
Страна-выпуска диска: Germany
Номер по каталогу: 0209448EMU
Формат: FLAC
Битрейт аудио: Lossless
Тип рипа: image +.cue
Наличие сканов в содержимом раздачи: да

01. Dark Star (4:36)
02. My Little Phoenix (4:13)
03. The Crying Moon (4:50)
04. I Walk Alone (4:04)
05. Falling Awake (5:06)
06. Signos (Soda Stereo cover) (6:09)
07. Little Lies (4:20)
08. Underneath (5:27)
09. Stargazers (4:24)
10. Ciaran’s Well (3:30)
11. In For A Kill (4:23)
12. Where Were You Last Night – Heaven Is A Place On Earth – Livin’ On A Prayer (4:00)
13. Die Alive (3:55)
14. Until My Last Breath (4:30)
15. Wishmaster (4:57)
01. In For a Kill - Masters of Rock / Czech Republic 2010. Featuring Philarmonic ... (4:37)
02. I Walk Alone - Masters of Rock / Czech Republic 2010. Featuring Philarmonic B... (4:02)
03. Archive of Lost Dreams - Masters of Rock / Czech Republic 2010. Featuring Phi... (3:41)
04. Crimson Deep - Masters of Rock / Czech Republic 2010. Featuring Philarmonic B... (7:29)
05. I Feel Immortal - Summerbreeze / Germany 2011 (4:27)
06. The Siren (Nightwish) - Summerbreeze / Germany 2011 (4:46)
07. Until my Last Breath - Summerbreeze / Germany 2011 (4:34)
08. 500 Letters - Ekaterinburg / Russia 2014 (4:25)
09. Damned & Divine - Ekaterinburg / Russia 2014 (3:48)
10. Neverlight - Ekaterinburg / Russia 2014 (4:34)
11. Anteroom of Death - Wacken / Germany 2014 featuring Van Canto (4:17)
12. Never Enough - Summerbreeze / Germany 2014 (8:42)
13. Die Alive - Summerbreeze / Germany 2014 (3:53)
14. Victim of Ritual - Summerbreeze / Germany 2014 (6:30)

Код:

Exact Audio Copy V1.0 beta 3 from 29. August 2011

EAC extraction logfile from 19. June 2015, 22:43

Tarja / Luna Park Ride CD1

Used drive  : PLEXTOR BD-R   PX-B940SA   Adapter: 5  ID: 0

Read mode               : Secure
Utilize accurate stream : Yes
Defeat audio cache      : Yes
Make use of C2 pointers : No

Read offset correction                      : 667
Overread into Lead-In and Lead-Out          : No
Fill up missing offset samples with silence : Yes
Delete leading and trailing silent blocks   : No
Null samples used in CRC calculations       : Yes
Used interface                              : Installed external ASPI interface

Used output format              : User Defined Encoder
Selected bitrate                : 128 kBit/s
Quality                         : High
Add ID3 tag                     : Yes
Command line compressor         : G:\Program Files (x86)\Exact Audio Copy\Flac\flac.exe
Additional command line options : -V -8 -T "Date=%year%" -T "Genre=%genre%" %source%

TOC of the extracted CD

     Track |   Start  |  Length  | Start sector | End sector
    ---------------------------------------------------------
        1  |  0:00.00 |  4:35.42 |         0    |    20666
        2  |  4:35.42 |  4:12.65 |     20667    |    39631
        3  |  8:48.32 |  4:49.61 |     39632    |    61367
        4  | 13:38.18 |  4:03.38 |     61368    |    79630
        5  | 17:41.56 |  5:05.62 |     79631    |   102567
        6  | 22:47.43 |  6:09.37 |    102568    |   130279
        7  | 28:57.05 |  4:20.23 |    130280    |   149802
        8  | 33:17.28 |  5:27.11 |    149803    |   174338
        9  | 38:44.39 |  4:24.25 |    174339    |   194163
       10  | 43:08.64 |  3:30.27 |    194164    |   209940
       11  | 46:39.16 |  4:22.51 |    209941    |   229641
       12  | 51:01.67 |  3:59.38 |    229642    |   247604
       13  | 55:01.30 |  3:54.55 |    247605    |   265209
       14  | 58:56.10 |  4:30.04 |    265210    |   285463
       15  | 63:26.14 |  4:56.72 |    285464    |   307735

Range status and errors

Selected range

     Filename D:\MUSIC\Tarja - Luna Park Ride CD1.wav

     Peak level 100.0 %
     Extraction speed 4.9 X
     Range quality 100.0 %
     Test CRC D1C295F9
     Copy CRC D1C295F9
     Copy OK

No errors occurred

AccurateRip summary

Track  1  not present in database
Track  2  not present in database
Track  3  not present in database
Track  4  not present in database
Track  5  not present in database
Track  6  not present in database
Track  7  not present in database
Track  8  not present in database
Track  9  not present in database
Track 10  not present in database
Track 11  not present in database
Track 12  not present in database
Track 13  not present in database
Track 14  not present in database
Track 15  not present in database

None of the tracks are present in the AccurateRip database

End of status report

Код:

Exact Audio Copy V1.0 beta 3 from 29. August 2011

EAC extraction logfile from 20. June 2015, 0:00

Tarja / Luna Park Ride CD2

Used drive  : PLEXTOR BD-R   PX-B940SA   Adapter: 5  ID: 0

Read mode               : Secure
Utilize accurate stream : Yes
Defeat audio cache      : Yes
Make use of C2 pointers : No

Read offset correction                      : 667
Overread into Lead-In and Lead-Out          : No
Fill up missing offset samples with silence : Yes
Delete leading and trailing silent blocks   : No
Null samples used in CRC calculations       : Yes
Used interface                              : Installed external ASPI interface

Used output format              : User Defined Encoder
Selected bitrate                : 128 kBit/s
Quality                         : High
Add ID3 tag                     : Yes
Command line compressor         : G:\Program Files (x86)\Exact Audio Copy\Flac\flac.exe
Additional command line options : -V -8 -T "Date=%year%" -T "Genre=%genre%" %source%

TOC of the extracted CD

     Track |   Start  |  Length  | Start sector | End sector
    ---------------------------------------------------------
        1  |  0:00.00 |  4:37.21 |         0    |    20795
        2  |  4:37.21 |  4:02.20 |     20796    |    38965
        3  |  8:39.41 |  3:40.47 |     38966    |    55512
        4  | 12:20.13 |  7:28.63 |     55513    |    89175
        5  | 19:49.01 |  4:27.05 |     89176    |   109205
        6  | 24:16.06 |  4:46.24 |    109206    |   130679
        7  | 29:02.30 |  4:33.61 |    130680    |   151215
        8  | 33:36.16 |  4:25.20 |    151216    |   171110
        9  | 38:01.36 |  3:48.33 |    171111    |   188243
       10  | 41:49.69 |  4:34.04 |    188244    |   208797
       11  | 46:23.73 |  4:16.54 |    208798    |   228051
       12  | 50:40.52 |  8:42.07 |    228052    |   267208
       13  | 59:22.59 |  3:52.71 |    267209    |   284679
       14  | 63:15.55 |  6:30.08 |    284680    |   313937

Range status and errors

Selected range

     Filename D:\MUSIC\Tarja - Luna Park Ride CD2.wav

     Peak level 100.0 %
     Extraction speed 4.8 X
     Range quality 99.9 %
     Test CRC EF8056E4
     Copy CRC EF8056E4
     Copy OK

No errors occurred

AccurateRip summary

Track  1  not present in database
Track  2  not present in database
Track  3  not present in database
Track  4  not present in database
Track  5  not present in database
Track  6  not present in database
Track  7  not present in database
Track  8  not present in database
Track  9  not present in database
Track 10  not present in database
Track 11  not present in database
Track 12  not present in database
Track 13  not present in database
Track 14  not present in database

None of the tracks are present in the AccurateRip database

End of status report

Код:

REM GENRE "Symphonic Rock"
REM DATE 2015
REM DISCID D410070F
REM COMMENT "ExactAudioCopy v1.0b3"
PERFORMER "Tarja"
TITLE "Luna Park Ride CD1"
FILE "Tarja - Luna Park Ride CD1.flac" WAVE
  TRACK 01 AUDIO
    TITLE "Dark Star"
    PERFORMER "Tarja"
    INDEX 01 00:00:00
  TRACK 02 AUDIO
    TITLE "My Little Phoenix"
    PERFORMER "Tarja"
    INDEX 01 04:35:42
  TRACK 03 AUDIO
    TITLE "The Crying Moon"
    PERFORMER "Tarja"
    INDEX 01 08:48:32
  TRACK 04 AUDIO
    TITLE "I Walk Alone"
    PERFORMER "Tarja"
    INDEX 01 13:38:18
  TRACK 05 AUDIO
    TITLE "Falling Awake"
    PERFORMER "Tarja"
    INDEX 01 17:41:56
  TRACK 06 AUDIO
    TITLE "Signos (Soda Stereo cover)"
    PERFORMER "Tarja"
    INDEX 01 22:47:43
  TRACK 07 AUDIO
    TITLE "Little Lies"
    PERFORMER "Tarja"
    INDEX 01 28:57:05
  TRACK 08 AUDIO
    TITLE "Underneath"
    PERFORMER "Tarja"
    INDEX 01 33:17:28
  TRACK 09 AUDIO
    TITLE "Stargazers"
    PERFORMER "Tarja"
    INDEX 01 38:44:39
  TRACK 10 AUDIO
    TITLE "Ciaran’s Well"
    PERFORMER "Tarja"
    INDEX 01 43:08:64
  TRACK 11 AUDIO
    TITLE "In For A Kill"
    PERFORMER "Tarja"
    INDEX 01 46:39:16
  TRACK 12 AUDIO
    TITLE "Where Were You Last Night – Heaven Is A Place On Earth – Livin’ On A Prayer"
    PERFORMER "Tarja"
    INDEX 01 51:01:67
  TRACK 13 AUDIO
    TITLE "Die Alive"
    PERFORMER "Tarja"
    INDEX 01 55:01:30
  TRACK 14 AUDIO
    TITLE "Until My Last Breath"
    PERFORMER "Tarja"
    INDEX 01 58:56:10
  TRACK 15 AUDIO
    TITLE "Wishmaster"
    PERFORMER "Tarja"
    INDEX 01 63:26:14

Код:

REM GENRE "Symphonic Rock"
REM DATE 2015
REM DISCID C510590E
REM COMMENT "ExactAudioCopy v1.0b3"
PERFORMER "Tarja"
TITLE "Luna Park Ride CD2"
FILE "Tarja - Luna Park Ride CD2.flac" WAVE
  TRACK 01 AUDIO
    TITLE "In For a Kill - Masters of Rock / Czech Republic 2010. Featuring Philarmonic ..."
    PERFORMER "Tarja"
    INDEX 01 00:00:00
  TRACK 02 AUDIO
    TITLE "I Walk Alone - Masters of Rock / Czech Republic 2010. Featuring Philarmonic B..."
    PERFORMER "Tarja"
    INDEX 01 04:37:21
  TRACK 03 AUDIO
    TITLE "Archive of Lost Dreams - Masters of Rock / Czech Republic 2010. Featuring Phi..."
    PERFORMER "Tarja"
    INDEX 01 08:39:41
  TRACK 04 AUDIO
    TITLE "Crimson Deep - Masters of Rock / Czech Republic 2010. Featuring Philarmonic B..."
    PERFORMER "Tarja"
    INDEX 01 12:20:13
  TRACK 05 AUDIO
    TITLE "I Feel Immortal - Summerbreeze / Germany 2011"
    PERFORMER "Tarja"
    INDEX 01 19:49:01
  TRACK 06 AUDIO
    TITLE "The Siren (Nightwish) - Summerbreeze / Germany 2011"
    PERFORMER "Tarja"
    INDEX 01 24:16:06
  TRACK 07 AUDIO
    TITLE "Until my Last Breath - Summerbreeze / Germany 2011"
    PERFORMER "Tarja"
    INDEX 01 29:02:30
  TRACK 08 AUDIO
    TITLE "500 Letters - Ekaterinburg / Russia 2014"
    PERFORMER "Tarja"
    INDEX 01 33:36:16
  TRACK 09 AUDIO
    TITLE "Damned & Divine - Ekaterinburg / Russia 2014"
    PERFORMER "Tarja"
    INDEX 01 38:01:36
  TRACK 10 AUDIO
    TITLE "Neverlight - Ekaterinburg / Russia 2014"
    PERFORMER "Tarja"
    INDEX 01 41:49:69
  TRACK 11 AUDIO
    TITLE "Anteroom of Death - Wacken / Germany 2014 featuring Van Canto"
    PERFORMER "Tarja"
    INDEX 01 46:23:73
  TRACK 12 AUDIO
    TITLE "Never Enough - Summerbreeze / Germany 2014"
    PERFORMER "Tarja"
    INDEX 01 50:40:52
  TRACK 13 AUDIO
    TITLE "Die Alive - Summerbreeze / Germany 2014"
    PERFORMER "Tarja"
    INDEX 01 59:22:59
  TRACK 14 AUDIO
    TITLE "Victim of Ritual - Summerbreeze / Germany 2014"
    PERFORMER "Tarja"
    INDEX 01 63:15:55


Download

Скачать (бесплатно и на максимальной скорости)!

Как скачивать  ·   Что такое torrent (торрент)  ·   Рейтинг и ограничения

Сайт не распространяет и не хранит электронные версии произведений, а лишь предоставляет доступ к создаваемому пользователями каталогу ссылок на торрент-файлы, которые содержат только списки хеш-сумм


 
Показать сообщения:    
Ответить на тему

Текущее время: 18-Окт 19:44

Часовой пояс: GMT + 3



Вы не можете начинать темы
Вы не можете отвечать на сообщения
Вы не можете редактировать свои сообщения
Вы не можете удалять свои сообщения
Вы не можете голосовать в опросах
Вы не можете прикреплять файлы к сообщениям
Вы не можете скачивать файлы



В начало страницы  •