Loading...
Error
Регистрация  · 
Имя: Пароль:    
 ·  Забыли пароль?
Правила пользования ресурсом

Сегодня идет свободное скачивание без начисления скачанного

(Heavy Metal) Черный Кофе - Осенний Порыв - 2015 [FLAC, tracks+.cue, lossless]

Ответить на тему
 
Автор Сообщение

sergej644


post 13-Янв-2016 02:50

 


Черный Кофе - Осенний Порыв


Год | Год издания: 2015
Страна: Russia
Жанр: Heavy Metal
Продолжительность: 00:44:27
Страна-выпуска диска: Russia
Формат: FLAC
Битрейт аудио: lossless
Тип рипа: tracks+.cue
Наличие сканов в содержимом раздачи: да

01.А наш-то,наш(04:34)
02.Отчаяние(04:46)
03.Волкодав(04:03)
04.Листопад(03:36)
05.Воздуха(01:37)
06.Генерал(04:23)
07.Божоле(03:51)
08.Я Прошу(03:23)
09.Все Для Тебя(03:04)
10.Электрокода(03:15)
11.Полет Птицы(03:43)
12.Белый Ветер(04:19)

Код:

Exact Audio Copy V1.1 from 23. June 2015

Отчёт EAC об извлечении, выполненном 22. декабря 2015, 15:08

Чёрный Кофе / Осенний Порыв

Дисковод: HL-DT-STDVDRAM GH22NS50   Adapter: 1  ID: 0

Режим чтения                 : Достоверность
Использование точного потока : Да
Отключение кэша аудио        : Да
Использование указателей C2  : Нет

Коррекция смещения при чтении                     : 667
Способность читать области Lead-in и Lead-out     : Нет
Заполнение пропущенных сэмплов тишиной            : Да
Удаление блоков с тишиной в начале и конце        : Нет
При вычислениях CRC использовались нулевые сэмплы : Да
Интерфейс                                         : Встроенный Win32-интерфейс для Win NT/2000
Обработка зазоров                                 : Добавлено к предыдущему треку

Выходной формат          : Пользовательский кодировщик
Выбранный битрейт        : 1024 kBit/s
Качество                 : Высокий
Добавление ID3-тега      : Да
Утилита сжатия           : C:\Program Files\FLAC\flac.exe
Дополнительные параметры : -V -8 -T "Date=%year%" -T "Genre=%genre%" %source%

TOC извлечённого CD

     Трек |   Старт  | Длительность | Начальный сектор | Конечный сектор
    ---------------------------------------------------------------------
       1  |  0:00.00 |    4:33.55   |           0      |      20529     
       2  |  4:33.55 |    4:45.56   |       20530      |      41960     
       3  |  9:19.36 |    4:02.30   |       41961      |      60140     
       4  | 13:21.66 |    3:35.03   |       60141      |      76268     
       5  | 16:56.69 |    1:36.08   |       76269      |      83476     
       6  | 18:33.02 |    4:22.41   |       83477      |     103167     
       7  | 22:55.43 |    3:50.53   |      103168      |     120470     
       8  | 26:46.21 |    3:22.03   |      120471      |     135623     
       9  | 30:08.24 |    3:03.29   |      135624      |     149377     
      10  | 33:11.53 |    3:14.20   |      149378      |     163947     
      11  | 36:25.73 |    3:42.26   |      163948      |     180623     
      12  | 40:08.24 |    4:18.27   |      180624      |     200000     

Трек  1

     Имя файла F:\Чёрный Кофе - Осенний Порыв (2015)\01. А Наш-то, Наш.wav

     Длина предзазора  0:00:02.00

     Пиковый уровень 100.0 %
     Скорость извлечения 1.1 X
     Качество трека 100.0 %
     CRC теста 675FED7B
     CRC копии 675FED7B
     Трек не обнаружен в базе AccurateRip
     Копирование... OK

Трек  2

     Имя файла F:\Чёрный Кофе - Осенний Порыв (2015)\02. Отчаяние.wav

     Пиковый уровень 100.0 %
     Скорость извлечения 1.3 X
     Качество трека 100.0 %
     CRC теста 76B1AF50
     CRC копии 76B1AF50
     Трек не обнаружен в базе AccurateRip
     Копирование... OK

Трек  3

     Имя файла F:\Чёрный Кофе - Осенний Порыв (2015)\03. Волкодав.wav

     Пиковый уровень 100.0 %
     Скорость извлечения 1.4 X
     Качество трека 100.0 %
     CRC теста E3DFB63A
     CRC копии E3DFB63A
     Трек не обнаружен в базе AccurateRip
     Копирование... OK

Трек  4

     Имя файла F:\Чёрный Кофе - Осенний Порыв (2015)\04. Листопад.wav

     Пиковый уровень 99.9 %
     Скорость извлечения 1.4 X
     Качество трека 100.0 %
     CRC теста 2DCC0DC7
     CRC копии 2DCC0DC7
     Трек не обнаружен в базе AccurateRip
     Копирование... OK

Трек  5

     Имя файла F:\Чёрный Кофе - Осенний Порыв (2015)\05. Воздуха.wav

     Пиковый уровень 85.2 %
     Скорость извлечения 1.3 X
     Качество трека 100.0 %
     CRC теста 8714EC46
     CRC копии 8714EC46
     Трек не обнаружен в базе AccurateRip
     Копирование... OK

Трек  6

     Имя файла F:\Чёрный Кофе - Осенний Порыв (2015)\06. Генерал.wav

     Пиковый уровень 99.9 %
     Скорость извлечения 1.6 X
     Качество трека 100.0 %
     CRC теста 1303F880
     CRC копии 1303F880
     Трек не обнаружен в базе AccurateRip
     Копирование... OK

Трек  7

     Имя файла F:\Чёрный Кофе - Осенний Порыв (2015)\07. Божоле.wav

     Пиковый уровень 99.9 %
     Скорость извлечения 1.4 X
     Качество трека 99.9 %
     CRC теста 43F0CC43
     CRC копии 43F0CC43
     Трек не обнаружен в базе AccurateRip
     Копирование... OK

Трек  8

     Имя файла F:\Чёрный Кофе - Осенний Порыв (2015)\08. Я Прошу....wav

     Пиковый уровень 100.0 %
     Скорость извлечения 1.6 X
     Качество трека 100.0 %
     CRC теста AF72F044
     CRC копии AF72F044
     Трек не обнаружен в базе AccurateRip
     Копирование... OK

Трек  9

     Имя файла F:\Чёрный Кофе - Осенний Порыв (2015)\09. Всё Для Тебя.wav

     Пиковый уровень 100.0 %
     Скорость извлечения 1.7 X
     Качество трека 100.0 %
     CRC теста 916115C3
     CRC копии 916115C3
     Трек не обнаружен в базе AccurateRip
     Копирование... OK

Трек 10

     Имя файла F:\Чёрный Кофе - Осенний Порыв (2015)\10. Электрокода.wav

     Пиковый уровень 100.0 %
     Скорость извлечения 1.8 X
     Качество трека 100.0 %
     CRC теста 90F2375E
     CRC копии 90F2375E
     Трек не обнаружен в базе AccurateRip
     Копирование... OK

Трек 11

     Имя файла F:\Чёрный Кофе - Осенний Порыв (2015)\11. Полёт Птицы.wav

     Пиковый уровень 100.0 %
     Скорость извлечения 1.9 X
     Качество трека 100.0 %
     CRC теста DBC043AE
     CRC копии DBC043AE
     Трек не обнаружен в базе AccurateRip
     Копирование... OK

Трек 12

     Имя файла F:\Чёрный Кофе - Осенний Порыв (2015)\12. Белый Ветер.wav

     Пиковый уровень 100.0 %
     Скорость извлечения 2.0 X
     Качество трека 100.0 %
     CRC теста 5CF8165E
     CRC копии 5CF8165E
     Трек не обнаружен в базе AccurateRip
     Копирование... OK

Ни одного трека нет в базе AccurateRip

Ошибок не произошло

Конец отчёта

---- CUETools DB Plugin V2.1.6

[CTDB TOCID: CXrG3s_ZCqjM43L50rw8cbPtIbI-] disk not present in database
Submit result: Процесс не может получить доступ к файлу "C:\Documents and Settings\Admin\Local Settings\Temp\io6dfsrm.dll", так как этот файл используется другим процессом.

Код:

REM GENRE "Hard Rock"
REM DATE 2015
REM DISCID 930A6A0C
REM COMMENT "ExactAudioCopy v1.1"
PERFORMER "Чёрный Кофе"
TITLE "Осенний Порыв"
FILE "01. А Наш-то, Наш.flac" WAVE
  TRACK 01 AUDIO
    TITLE "А Наш-то, Наш"
    PERFORMER "Чёрный Кофе"
    INDEX 01 00:00:00
    INDEX 02 03:57:25
FILE "02. Отчаяние.flac" WAVE
  TRACK 02 AUDIO
    TITLE "Отчаяние"
    PERFORMER "Чёрный Кофе"
    INDEX 01 00:00:00
FILE "03. Волкодав.flac" WAVE
  TRACK 03 AUDIO
    TITLE "Волкодав"
    PERFORMER "Чёрный Кофе"
    INDEX 01 00:00:00
FILE "04. Листопад.flac" WAVE
  TRACK 04 AUDIO
    TITLE "Листопад"
    PERFORMER "Чёрный Кофе"
    INDEX 01 00:00:00
FILE "05. Воздуха.flac" WAVE
  TRACK 05 AUDIO
    TITLE "Воздуха"
    PERFORMER "Чёрный Кофе"
    INDEX 01 00:00:00
FILE "06. Генерал.flac" WAVE
  TRACK 06 AUDIO
    TITLE "Генерал"
    PERFORMER "Чёрный Кофе"
    INDEX 01 00:00:00
FILE "07. Божоле.flac" WAVE
  TRACK 07 AUDIO
    TITLE "Божоле"
    PERFORMER "Чёрный Кофе"
    INDEX 01 00:00:00
FILE "08. Я Прошу....flac" WAVE
  TRACK 08 AUDIO
    TITLE "Я Прошу..."
    PERFORMER "Чёрный Кофе"
    INDEX 01 00:00:00
FILE "09. Всё Для Тебя.flac" WAVE
  TRACK 09 AUDIO
    TITLE "Всё Для Тебя"
    PERFORMER "Чёрный Кофе"
    INDEX 01 00:00:00
FILE "10. Электрокода.flac" WAVE
  TRACK 10 AUDIO
    TITLE "Электрокода"
    PERFORMER "Чёрный Кофе"
    INDEX 01 00:00:00
FILE "11. Полёт Птицы.flac" WAVE
  TRACK 11 AUDIO
    TITLE "Полёт Птицы"
    PERFORMER "Чёрный Кофе"
    INDEX 01 00:00:00
FILE "12. Белый Ветер.flac" WAVE
  TRACK 12 AUDIO
    TITLE "Белый Ветер"
    PERFORMER "Чёрный Кофе"
    INDEX 01 00:00:00




Download

Скачать (бесплатно и на максимальной скорости)!

Как скачивать  ·   Что такое torrent (торрент)  ·   Рейтинг и ограничения

Сайт не распространяет и не хранит электронные версии произведений, а лишь предоставляет доступ к создаваемому пользователями каталогу ссылок на торрент-файлы, которые содержат только списки хеш-сумм


 
Показать сообщения:    
Ответить на тему

Текущее время: 26-Фев 06:16

Часовой пояс: GMT + 3



Вы не можете начинать темы
Вы не можете отвечать на сообщения
Вы не можете редактировать свои сообщения
Вы не можете удалять свои сообщения
Вы не можете голосовать в опросах
Вы не можете прикреплять файлы к сообщениям
Вы не можете скачивать файлы



В начало страницы  •