Loading...
Error
Регистрация  · 
Имя: Пароль:    
 ·  Забыли пароль?
Правила пользования ресурсом

Сегодня идет свободное скачивание без начисления скачанного

Тропою тигра (Алексей Поборцев) [2015, документальный, SATRip]

Ответить на тему
 
Автор Сообщение

O.S.A.


post 26-Июл-2015 20:06

 



Тропою тигра


  • Год выпуска: 2015
  • Страна: Россия
  • Жанр: документальный
  • Продолжительность: 00:49:18
  • Перевод: Не требуется
  • Режиссёр: Алексей Поборцев
  • В ролях: Ученые-биологи...
  • Амурский тигр – самый большой и сильный в мире. Но именно ему совсем недавно грозило полное истребление. За ним охотятся браконьеры, чтобы продать по ту сторону границы за десятки тысяч долларов. Китайцы используют тигров для приготовления медицинских снадобий. В последние годы наше государство предпринимает серьезные меры, чтобы спасти исчезающего хищника. Но насколько они эффективны? Дают ли они результат?
    Совсем недавно группа российских ученых-биологов отправилась в амурскую тайгу, чтобы определить, сколько же особей еще осталось, увеличивается ли их популяция, изучить повадки тигра, а также понять — что же мы еще должны сделать, чтобы сохранить это удивительное животное. Вместе с учеными «тропою тигра» прошел специальный корреспондент НТВ Алексей Поборцев. Удалось ли ему повстречать тигра в амурской тайге и чем эта встреча закончилась?

  • Премьера в России: 26 июля 2015 (НТВ)



  • Качество видео: SATRip
  • Формат видео: AVI
  • Видео кодек: XviD
  • Аудио кодек: MP3
  • Видео: 720x448 (1.61:1), 25.000 fps, XviD MPEG-4, ~1800 kbps avg, 0.223 bit/pixel
  • Аудио: 48.0 kHz, MPEG Audio Layer 3, 2 ch, ~128.00 kbps avg
  • Субтитры: нет


General
Complete name : W:\O.S.A.\Торренты\Завершенные торренты\Tropoju.tigra.2015.07.26.SATRip.avi
Format : AVI
Format/Info : Audio Video Interleave
File size : 683 MiB
Duration : 49mn 18s
Overall bit rate : 1 938 Kbps
Writing application : VirtualDubModRus 1.5.10.2 (build 2542/release)
Writing library : VirtualDubMod build 2542/release

Video
ID : 0
Format : MPEG-4 Visual
Format profile : Advanced [email protected]
Format settings, BVOP : 2
Format settings, QPel : No
Format settings, GMC : No warppoints
Format settings, Matrix : Default (H.263)
Codec ID : XVID
Codec ID/Hint : XviD
Duration : 49mn 18s
Bit rate : 1 800 Kbps
Width : 720 pixels
Height : 448 pixels
Display aspect ratio : 1.607
Frame rate : 25.000 fps
Color space : YUV
Chroma subsampling : 4:2:0
Bit depth : 8 bits
Scan type : Progressive
Compression mode : Lossy
Bits/(Pixel*Frame) : 0.223
Stream size : 635 MiB (93%)
Writing library : XviD 1.2.1 (UTC 2008-12-04)

Audio
ID : 1
Format : MPEG Audio
Format version : Version 1
Format profile : Layer 3
Codec ID : 55
Codec ID/Hint : MP3
Duration : 49mn 18s
Bit rate mode : Constant
Bit rate : 128 Kbps
Channel(s) : 2 channels
Sampling rate : 48.0 KHz
Compression mode : Lossy
Stream size : 45.1 MiB (7%)
Alignment : Aligned on interleaves
Interleave, duration : 40 ms (1.00 video frame)
Interleave, preload duration : 504 ms
Writing library : LAME3.99r
Encoding settings : -m s -V 4 -q 2 -lowpass 17 -b 128




Download

Скачать (бесплатно и на максимальной скорости)!

Как скачивать  ·   Что такое torrent (торрент)  ·   Рейтинг и ограничения

Сайт не распространяет и не хранит электронные версии произведений, а лишь предоставляет доступ к создаваемому пользователями каталогу ссылок на торрент-файлы, которые содержат только списки хеш-сумм


 
Показать сообщения:    
Ответить на тему

Текущее время: 20-Фев 20:31

Часовой пояс: GMT + 3



Вы не можете начинать темы
Вы не можете отвечать на сообщения
Вы не можете редактировать свои сообщения
Вы не можете удалять свои сообщения
Вы не можете голосовать в опросах
Вы не можете прикреплять файлы к сообщениям
Вы не можете скачивать файлы



В начало страницы  •