Loading...
Error
Регистрация  · 
Имя: Пароль:    
 ·  Забыли пароль?
Правила пользования ресурсом

Сегодня идет свободное скачивание без начисления скачанного

BBC. Морские гиганты / Ocean Giants [3 серии из 3] (Ингрид Квале, Анушка Шофилд, Эллен Хусейн) [2011, документальный, BDRip 1080p] DVO

Ответить на тему
 
Автор Сообщение

O.S.A.


post 14-Дек-2014 18:52

 



BBC. Морские гиганты / Ocean Giants


Год выпуска: 2011
Страна: Великобритания
Производство:
Жанр: Документальный, природа
Продолжительность: 3 x ~00:52:00
Перевод: Профессиональный (двухголосый закадровый) [Студия "Омикрон"]
Режиссер: Ингрид Квале, Анушка Шофилд, Эллен Хусейн
В ролях: Стивен Фрай, Даг Аллен, Эндрю Армор, Вера Да Силва, Джим Дарлинг, Аша Де Воз, Джон Дурбан, Уолкер Дик, Тони Фрохофф...
Описание: В подводном мире киты и дельфины ведут необычный образ жизни. Их мир совершенно отличен от нашего, и мы можем лишь заглянуть туда. Синий кит - крупнейшее животное на планете. Более того, это крупнейшее животное из когда-либо живших на Земле. Миллионы лет эти гигантские киты и их сверхразумные братья - дельфины, царили в подводном мире.
Наши отношения с ними не всегда были дружественными. Ранее мы преследовали их. Но теперь мы протягиваем им руку и испытываем ощущение чуда. Вместе с исследователями, посвятившими им свою жизнь, мы встретим самых удивительных китов и дельфинов, раскроем их тайны, услышим их голоса. Загадочные голоса китов и дельфинов веками давали пищу воображению. Возможно, ученые когда-нибудь узнают правду о чудесных голосах океана. Но пока что частная жизнь гигантов океана покрыта тайной.



Качество видео: BDRip 1080p
Формат видео: MKV
Видео кодек: H.264
Аудио кодек: AC3
Видео: 1920x1080p (1.78:1), 25.000 fps, MPEG-4 AVC, ~10.0 Mbps avg, 0.193 bit/pixel
Аудио #1: [RUS] 48.0 kKHz, AC3 Dolby Digital, 2.0 (L,R) ch, ~640.00 kbps avg
Аудио #2: [ENG] 48.0 kKHz, AC3 Dolby Digital, 2.0 (L,R) ch, ~640.00 kbps avg
Субтитры: нет
Примечание: Технические данные всех серий идентичны.


Жизнь гигантов / Giant Lives
Мыслители глубин / Deep Thinkers
Голоса океанов / Voices of the Sea
Общее
Уникальный идентификатор : 232626752996365605734345179721405962229 (0xAF02486F284B915E969697AEF3EA17F5)
Полное имя : D:\Temp\Video\01.Giant.Lives.BDRip.1080p.mkv
Формат : Matroska
Версия формата : Version 2
Размер файла : 4,05 Гбайт
Продолжительность : 51 м.
Общий поток : 11,3 Мбит/сек
Название фильма : 00000
Дата кодирования : UTC 2014-12-07 10:06:37
Программа кодирования : DVDFab 9.1.6.8
Библиотека кодирования : libebml v0.7.8 + libmatroska v0.8.1

Видео
Идентификатор : 1
Формат : AVC
Формат/Информация : Advanced Video Codec
Профиль формата : [url=mailto:[email protected]][email protected][/url]
Параметр CABAC формата : Да
Параметр ReFrames формата : 2 кадра
Идентификатор кодека : V_MPEG4/ISO/AVC
Продолжительность : 51 м.
Битрейт : 10000 Кбит/сек
Ширина : 1920 пикселей
Высота : 1080 пикселей
Соотношение сторон : 16:9
Режим частоты кадров : Постоянный
Частота кадров : 25,000 кадров/сек
Цветовое пространство : YUV
Субдискретизация насыщенности : 4:2:0
Битовая глубина : 8 бит
Тип развёртки : Прогрессивная
Бит/(Пиксели*Кадры) : 0.193
Размер потока : 3,51 Гбайт (87%)
Библиотека кодирования : x264 core 142
Настройки программы : cabac=1 / ref=1 / deblock=1:-1:-1 / analyse=0x3:0 / me=hex / subme=5 / psy=0 / mixed_ref=0 / me_range=16 / chroma_me=1 / trellis=0 / 8x8dct=1 / cqm=0 / deadzone=21,11 / fast_pskip=1 / chroma_qp_offset=0 / threads=3 / lookahead_threads=1 / sliced_threads=0 / nr=0 / decimate=1 / interlaced=0 / bluray_compat=0 / constrained_intra=0 / bframes=2 / b_pyramid=0 / b_adapt=1 / b_bias=0 / direct=1 / weightb=1 / open_gop=0 / weightp=0 / keyint=24 / keyint_min=13 / scenecut=40 / intra_refresh=0 / rc=abr / mbtree=0 / bitrate=10000 / ratetol=1.0 / qcomp=0.60 / qpmin=0 / qpmax=69 / qpstep=4 / ip_ratio=1.40 / pb_ratio=1.30 / aq=1:1.00
Default : Да
Forced : Нет
Основные цвета : BT.709
Характеристики трансфера : BT.709
Коэффициенты матрицы : BT.709

Аудио #1
Идентификатор : 2
Формат : AC-3
Формат/Информация : Audio Coding 3
Расширение режима : CM (complete main)
Параметр Endianness формата : Big
Идентификатор кодека : A_AC3
Продолжительность : 51 м.
Вид битрейта : Постоянный
Битрейт : 640 Кбит/сек
Каналы : 2 канала
Расположение каналов : Front: L R
Частота : 48,0 КГц
Битовая глубина : 16 бит
Метод сжатия : С потерями
Размер потока : 236 Мбайт (6%)
Default : Да
Forced : Нет

Аудио #2
Идентификатор : 3
Формат : AC-3
Формат/Информация : Audio Coding 3
Расширение режима : CM (complete main)
Параметр Endianness формата : Big
Идентификатор кодека : A_AC3
Продолжительность : 51 м.
Вид битрейта : Постоянный
Битрейт : 640 Кбит/сек
Каналы : 2 канала
Расположение каналов : Front: L R
Частота : 48,0 КГц
Битовая глубина : 16 бит
Метод сжатия : С потерями
Размер потока : 236 Мбайт (6%)
Default : Нет
Forced : Нет
Озвучено студией «Омикрон» специально для HDCLUB. Русская дорожка получена наложением чистого голоса. Перевод и озвучивание осуществлено в рамках сервиса "Озвучивание". Спонсоры: lokolex, Magal, Der__Gott, Lissa, Radov, Ex1l, Steal, moonsea, Zergus, rmn84, Plesha, longru




Download

Скачать (бесплатно и на максимальной скорости)!

Как скачивать  ·   Что такое torrent (торрент)  ·   Рейтинг и ограничения

Сайт не распространяет и не хранит электронные версии произведений, а лишь предоставляет доступ к создаваемому пользователями каталогу ссылок на торрент-файлы, которые содержат только списки хеш-сумм


 
Показать сообщения:    
Ответить на тему

Текущее время: 23-Фев 17:40

Часовой пояс: GMT + 3



Вы не можете начинать темы
Вы не можете отвечать на сообщения
Вы не можете редактировать свои сообщения
Вы не можете удалять свои сообщения
Вы не можете голосовать в опросах
Вы не можете прикреплять файлы к сообщениям
Вы не можете скачивать файлы



В начало страницы  •