Loading...
Error
Регистрация  · 
Имя: Пароль:    
 ·  Забыли пароль?
Правила пользования ресурсом

Сегодня идет свободное скачивание без начисления скачанного

National Geographic: Дикий Нил / Wild Nile (3 серии из 3) (Харальд Покисер) [2014, документальный, HDTVRip 720p] VO

Ответить на тему
 
Автор Сообщение

O.S.A.


post 09-Ноя-2014 22:56

 



National Geographic: Дикий Нил / Wild Nile


Год выпуска: 2014
Страна: США
Производство: National Geographic Television
Жанр: документальный, природа, путешествия
Продолжительность: 3 x ~00:44:00
Перевод: Профессиональный (одноголосый закадровый) Студия "Велес"
Официальный сайт: NAT GEO
Режиссер: Харальд Покисер
Описание: Исток реки находится в области гор Рувензори на территории Уганды. Здесь, в месте, где деревья достигают 10 метров в высоту, среди которых живут редкие птицы, например, алые нектарницы и мерцаюшие бананоеды. Нил проходит через озеро Виктория и превращается в водопады Мерчисон-Фоллс (Кабарега), в окрестностях которых звёзды животного мира Африки — жирафы, слоны и львы — выходят на сцену. Пройдя болото Судд, река медленно, но верно направляется к своей дельте в Средиземноморе через бесконечные пустыни и мимо знаменитых египетских пирамид. Более 80 миллионов людей живут в области дельты Нила, и многие из них зависят от регулярных наводнений. Дикий мир бассейна Нила полон контрастов и разнообразен не менее, чем ландшафты, окружающие реку на её пути. Этот фильм из трёх частей покажет разные лица удивительного Нила.

|| S1. || S2. || S3. ||

Качество видео: HDTVRip 720p
Формат видео: MKV
Видео кодек: H.264
Аудио кодек: AC3
Видео: 1280x720 (1.78:1), 25.000 fps, MPEG-4 AVC, ~4207 kbps avg, 0.183 bit/pixel
Аудио #1: [RUS] 48.0 kHz, AC3 Dolby Digital, 2/0 (L,R) ch, ~192.00 kbps avg
Аудио #2: [ENG] 48.0 kHz, AC3 Dolby Digital, 2/0 (L,R) ch, ~192.00 kbps avg
Субтитры: нет
Примечание: Технические данные всех серий максимально идентичны.


General
Unique ID : 246211337227504854662443902580427554662 (0xB93A9425C68388429F067385FB9B7F66)
Complete name : W:\O.S.A.\Торренты\Завершенные торренты\Wild.Nile.HDTVRip.2014.720p\1. Обретенный рай (Paradise Found).mkv
Format : Matroska
File size : 1.44 GiB
Duration : 43mn 59s
Overall bit rate : 4 684 Kbps
Encoded date : UTC 2014-09-30 02:20:00
Writing application : mkvmerge v5.8.0 ('No Sleep / Pillow') built on Sep 2 2012 15:37:04
Writing library : libebml v1.2.3 + libmatroska v1.3.0

Video
ID : 1
Format : AVC
Format/Info : Advanced Video Codec
Format profile : [email protected]
Format settings, CABAC : Yes
Format settings, ReFrames : 3 frames
Codec ID : V_MPEG4/ISO/AVC
Duration : 43mn 59s
Bit rate mode : Constant
Bit rate : 4 207 Kbps
Nominal bit rate : 4 500 Kbps / 4 500 Kbps
Width : 1 280 pixels
Height : 720 pixels
Display aspect ratio : 16:9
Frame rate : 25.000 fps
Standard : NTSC
Color space : YUV
Chroma subsampling : 4:2:0
Bit depth : 8 bits
Scan type : Progressive
Bits/(Pixel*Frame) : 0.183
Stream size : 1.29 GiB (90%)
Writing library : x264 core 114
Encoding settings : cabac=1 / ref=3 / deblock=1:0:0 / analyse=0x3:0x113 / me=hex / subme=7 / psy=1 / psy_rd=1.00:0.00 / mixed_ref=1 / me_range=16 / chroma_me=1 / trellis=1 / 8x8dct=1 / cqm=2 / deadzone=21,11 / fast_pskip=1 / chroma_qp_offset=-2 / threads=6 / sliced_threads=0 / slices=1 / nr=0 / decimate=1 / interlaced=0 / constrained_intra=0 / bframes=3 / b_pyramid=0 / b_adapt=1 / b_bias=0 / direct=1 / weightb=1 / open_gop=0 / weightp=2 / keyint=250 / keyint_min=25 / scenecut=40 / intra_refresh=0 / rc_lookahead=40 / rc=cbr / mbtree=1 / bitrate=4500 / ratetol=1.0 / qcomp=0.60 / qpmin=3 / qpmax=69 / qpstep=4 / vbv_maxrate=4500 / vbv_bufsize=4489 / nal_hrd=cbr / ip_ratio=1.40 / aq=1:1.00
Color primaries : BT.709-5, BT.1361, IEC 61966-2-4, SMPTE RP177
Transfer characteristics : BT.709-5, BT.1361
Matrix coefficients : BT.709-5, BT.1361, IEC 61966-2-4 709, SMPTE RP177

Audio #1
ID : 2
Format : AC-3
Format/Info : Audio Coding 3
Mode extension : CM (complete main)
Muxing mode : Header stripping
Codec ID : A_AC3
Duration : 43mn 59s
Bit rate mode : Constant
Bit rate : 192 Kbps
Channel(s) : 2 channels
Channel positions : Front: L R
Sampling rate : 48.0 KHz
Bit depth : 16 bits
Compression mode : Lossy
Stream size : 60.4 MiB (4%)
Language : Russian

Audio #2
ID : 3
Format : AC-3
Format/Info : Audio Coding 3
Mode extension : CM (complete main)
Muxing mode : Header stripping
Codec ID : A_AC3
Duration : 43mn 59s
Bit rate mode : Constant
Bit rate : 192 Kbps
Channel(s) : 2 channels
Channel positions : Front: L R
Sampling rate : 48.0 KHz
Bit depth : 16 bits
Compression mode : Lossy
Stream size : 60.4 MiB (4%)
Language : English
1. Обретенный рай / Paradise Found


2. Сердце тьмы / Heart Of Darkness


3. Река королей / River Of Kings




Download

Скачать (бесплатно и на максимальной скорости)!

Как скачивать  ·   Что такое torrent (торрент)  ·   Рейтинг и ограничения

Сайт не распространяет и не хранит электронные версии произведений, а лишь предоставляет доступ к создаваемому пользователями каталогу ссылок на торрент-файлы, которые содержат только списки хеш-сумм


 
Показать сообщения:    
Ответить на тему

Текущее время: 15-Авг 14:19

Часовой пояс: GMT + 3



Вы не можете начинать темы
Вы не можете отвечать на сообщения
Вы не можете редактировать свои сообщения
Вы не можете удалять свои сообщения
Вы не можете голосовать в опросах
Вы не можете прикреплять файлы к сообщениям
Вы не можете скачивать файлы



В начало страницы  •