Loading...
Error
Регистрация  · 
Имя: Пароль:    
 ·  Забыли пароль?
Правила пользования ресурсом

Сегодня идет свободное скачивание без начисления скачанного

Eric Clapton - Crossroads 2 (Live in the Seventies) (1996) DTS 5.1 Upmix, Blues-rock

Ответить на тему
 
Автор Сообщение

cataman


post 28-Окт-2014 23:27

 

Eric Clapton - Crossroads 2 (Live in the Seventies)

Год: 1996
Жанр: Blues-rock
Общая Продолжительность: 04:27:12

Кодек: DTS
Битрейт: 1411 kbps

Треклист:
Продолжительность: 01:13:03
[05:15] 01. Walkin' Down The Road
[07:42] 02. Have You Ever Loved A Woman
[11:42] 03. Willie And The Hand Jive - Get Ready
[05:19] 04. Can't Find My Way Home
[11:36] 05. Driftin' Blues - Rambling On My Mind
[08:48] 06. PPresence Of The Lord
[08:16] 07. Rambling On My Mind - Have You Ever Loved A Woman
[06:43] 08. Little Wing
[07:39] 09. The Sky Is Crying - Have You Ever Loved A Woman - Rambling On My Mind

Код:

Общее
Полное имя                               : D:\Downloads\Eric Clapton - Crossroads 2 (Live in the Seventies) CD 1 DTS\Eric Clapton - Crossroads 2 (Live in the Seventies) CD 1 DTS.wav
Формат                                   : Wave
Размер файла                             : 737 Мбайт
Продолжительность                        : 1 ч. 13 м.
Режим общего битрейта                    : Постоянный
Общий поток                              : 1411 Кбит/сек

Аудио
Формат                                   : DTS
Формат/Информация                        : Digital Theater Systems
Режим                                    : 14
Параметр Endianness формата              : Little
Идентификатор кодека                     : 1
Продолжительность                        : 1 ч. 13 м.
Вид битрейта                             : Постоянный
Битрейт                                  : 1411,2 Кбит/сек
Каналы                                   : 6 каналов
Расположение каналов                     : Front: L C R, Side: L R, LFE
Частота                                  : 44,1 КГц
Битовая глубина                          : 24 бит
Метод сжатия                             : С потерями
Размер потока                            : 737 Мбайт (100%)


Продолжительность: 01:02:32
[05:38] 01. Layla
[04:31] 02. Further On Up The Road
[10:21] 03. I Shot The Sheriff
[10:42] 04. Badge
[06:58] 05. Driftin' Blues
[24:19] 06. Eyesight To The Blind Why Does Love Got To Be So Sad?
[code]
Общее
Полное имя : D:\Downloads\Eric Clapton - Crossroads 2 (Live in the Seventies) CD 2 DTS\Eric Clapton - Crossroads 2 (live in the seventies) CD 2 DTS.wav
Формат : Wave
Размер файла : 631 Мбайт
Продолжительность : 1 ч. 2 м.
Режим общего битрейта : Постоянный
Общий поток : 1411 Кбит/сек

Аудио
Формат : DTS
Формат/Информация : Digital Theater Systems
Режим : 14
Параметр Endianness формата : Little
Идентификатор кодека : 1
Продолжительность : 1 ч. 2 м.
Вид битрейта : Постоянный
Битрейт : 1411,2 Кбит/сек
Каналы : 6 каналов
Расположение каналов : Front: L C R, Side: L R, LFE
Частота : 44,1 КГц
Битовая глубина : 24 бит
Метод сжатия : С потерями
Размер потока : 631 Мбайт (100%)


Продолжительность: 01:11:09
[08:57] 01. Tell The Truth
[05:20] 02. Knockin' On Heaven's Door
[13:02] 03. Stormy Monday
[05:23] 04. Lay Down Sally
[09:13] 05. The Core
[02:55] 06. We're All The Way
[06:37] 07. Cocaine
[13:45] 08. Goin' Down Slow - Rambling On My Mind
[05:53] 09. Mean Old Frisco
[code]
Общее
Полное имя : D:\Downloads\Eric Clapton - Crossroads 2 (Live in the Seventies) CD 3 DTS\Eric Clapton - Crossroads 2 (Live in the Seventies) CD 3 DTS.wav
Формат : Wave
Размер файла : 718 Мбайт
Продолжительность : 1 ч. 11 м.
Режим общего битрейта : Постоянный
Общий поток : 1411 Кбит/сек

Аудио
Формат : DTS
Формат/Информация : Digital Theater Systems
Режим : 14
Параметр Endianness формата : Little
Идентификатор кодека : 1
Продолжительность : 1 ч. 11 м.
Вид битрейта : Постоянный
Битрейт : 1411,2 Кбит/сек
Каналы : 6 каналов
Расположение каналов : Front: L C R, Side: L R, LFE
Частота : 44,1 КГц
Битовая глубина : 24 бит
Метод сжатия : С потерями
Размер потока : 718 Мбайт (100%)


Продолжительность: 01:00:27
[04:23] 01. Loving you is sweeter than ever
[05:58] 02. Worried life blues
[04:31] 03. Tulsa Time
[06:19] 04. Early in the morning
[06:24] 05. Wonderful tonight
[05:18] 06. Kind hearted woman
[11:06] 07. Double trouble
[05:20] 08. Crossroads
[05:11] 09. To make somebody happy
[02:54] 10. Cryin'
[02:59] 11. Water on the ground
[code]Общее
Полное имя : D:\Downloads\Eric Clapton - Crossroads 2 (Live in the Seventies) CD 4 DTS\Eric Clapton - Crossroads 2 (Live in the Seventies) CD 4 DTS.wav
Формат : Wave
Размер файла : 610 Мбайт
Продолжительность : 1 ч. 0 м.
Режим общего битрейта : Постоянный
Общий поток : 1411 Кбит/сек

Аудио
Формат : DTS
Формат/Информация : Digital Theater Systems
Режим : 14
Параметр Endianness формата : Little
Идентификатор кодека : 1
Продолжительность : 1 ч. 0 м.
Вид битрейта : Постоянный
Битрейт : 1411,2 Кбит/сек
Каналы : 6 каналов
Расположение каналов : Front: L C R, Side: L R, LFE
Частота : 44,1 КГц
Битовая глубина : 24 бит
Метод сжатия : С потерями
Размер потока : 610 Мбайт (100%)[/code]
Download

Скачать (бесплатно и на максимальной скорости)!

Как скачивать  ·   Что такое torrent (торрент)  ·   Рейтинг и ограничения

Сайт не распространяет и не хранит электронные версии произведений, а лишь предоставляет доступ к создаваемому пользователями каталогу ссылок на торрент-файлы, которые содержат только списки хеш-сумм


 
Показать сообщения:    
Ответить на тему

Текущее время: 15-Авг 14:20

Часовой пояс: GMT + 3



Вы не можете начинать темы
Вы не можете отвечать на сообщения
Вы не можете редактировать свои сообщения
Вы не можете удалять свои сообщения
Вы не можете голосовать в опросах
Вы не можете прикреплять файлы к сообщениям
Вы не можете скачивать файлы



В начало страницы  •