Loading...
Error
Регистрация  · 
Имя: Пароль:    
 ·  Забыли пароль?
Правила пользования ресурсом

Сегодня идет свободное скачивание без начисления скачанного

(EuroDisco) Bad Boys Blue - The Original Maxi-Singles Collection (2CD) - 2014, FLAC (image + .cue), lossless

Ответить на тему
 
Автор Сообщение

sergej644


post 04-Июн-2014 21:11

 


Bad Boys Blue - The Original Maxi-Singles Collection (2CD)


Страна-производитель диска: Germany
Жанр: EuroDisco
Год выпуска: 2014
Издатель (лейбл): Pokorny Music Solutions
Номер по каталогу: PMS 021
Формат: FLAC (image + .cue)
Битрейт аудио: lossless
Продолжительность: 02:33:51


продолжительность: 01:18:10

01. L.O.V.E. In My Car (12'' Version) (05:20)
02. You're A Woman (Long Version) (05:21)
03. Pretty Young Girl (12'' Version) (05:45)
04. Kisses And Tears (My One And Only) (Long Version) (05:42)
05. Love Really Hurts Without You (12'' Version) (05:49)
06. I Wanna Hear Your Heartbeat (Sunday Girl) (12'' Version) (06:29)
07. Gimme Gimme Your Lovin' (Little Lady) (Long Version) (05:08)
08. Kiss You All Over, Baby (12'' Version) (06:13)
09. Come Back And Stay (Dance Mix) (07:37)
10. Don't Walk Away Suzanne (Dance Mix (07:12)
11. Lovers In The Sand (Long Version) (05:50)
12. A World Without You( Michelle) (Dance Mix) (05:45)
13. Hungry For Love (Club Mix) (05:54)
продолжительность: 01:15:41

01. L.O.V.E. In My Car (Special Remix '88) (06:25)
02. Hot Girls - Bad Boys (04:10)
03. Pretty Young Girl (Club Mix '88) (04:32)
04. Lady Blue (04:26)
05. Midnight Hour (04:58)
06. Come Back And Stay (Audio Classic Mix) (06:52)
07. Don't Walk Away Suzanne (Special T.T. Mix) (04:09)
08. Lovers In The Sand (Special Heavy DJ Dub Remix) (05:53)
09. A World Without You (Michelle) (Remix) (06:20)
10. Hungry For Love (Hot-House Sex Mix) (08:19)
11. Lady In Black (Shakespearean Mix) (06:10)
12. A Train To Nowhere (Club Mix) (06:45)
13. How I Need You (Long Distance Mix) (06:37)


Код:

Exact Audio Copy V1.0 beta 1 from 15. November 2010

EAC extraction logfile from 5. May 2014, 0:33

Bad Boys Blue / The Original Maxi-Singles Collection CD1

Used drive  : PIONEER DVD-RW  DVR-215   Adapter: 1  ID: 0

Read mode               : Secure
Utilize accurate stream : Yes
Defeat audio cache      : Yes
Make use of C2 pointers : No

Read offset correction                      : 48
Overread into Lead-In and Lead-Out          : No
Fill up missing offset samples with silence : Yes
Delete leading and trailing silent blocks   : No
Null samples used in CRC calculations       : Yes
Used interface                              : Native Win32 interface for Win NT & 2000

Used output format              : User Defined Encoder
Selected bitrate                : 1024 kBit/s
Quality                         : High
Add ID3 tag                     : No
Command line compressor         : G:\PROGRAMY\EAC\Exact Audio Copy\FLAC\flac.exe
Additional command line options : -8 -V -T "ARTIST=%a" -T "TITLE=%t" -T "ALBUM=%g" -T "DATE=%y" -T "TRACKNUMBER=%n" -T "GENRE=%m" -T "COMMENT=EAC FLAC -8" %s

TOC of the extracted CD

     Track |   Start  |  Length  | Start sector | End sector
    ---------------------------------------------------------
        1  |  0:00.00 |  5:20.65 |         0    |    24064
        2  |  5:20.65 |  5:21.43 |     24065    |    48182
        3  | 10:42.33 |  5:45.33 |     48183    |    74090
        4  | 16:27.66 |  5:42.16 |     74091    |    99756
        5  | 22:10.07 |  5:49.06 |     99757    |   125937
        6  | 27:59.13 |  6:29.19 |    125938    |   155131
        7  | 34:28.32 |  5:08.17 |    155132    |   178248
        8  | 39:36.49 |  6:13.49 |    178249    |   206272
        9  | 45:50.23 |  7:37.00 |    206273    |   240547
       10  | 53:27.23 |  7:12.61 |    240548    |   273008
       11  | 60:40.09 |  5:50.22 |    273009    |   299280
       12  | 66:30.31 |  5:45.58 |    299281    |   325213
       13  | 72:16.14 |  5:54.38 |    325214    |   351801

Range status and errors

Selected range

     Filename G:\Music\Bad Boys Blue – The Original Maxi-Singles Collection\Bad Boys Blue - The Original Maxi-Singles Collection CD1\Bad Boys Blue - The Original Maxi-Singles Collection CD1.wav

     Peak level 96.9 %
     Extraction speed 0.3 X
     Range quality 100.0 %
     Test CRC D6986FEE
     Copy CRC D6986FEE
     Copy OK

No errors occurred

AccurateRip summary

Track  1  not present in database
Track  2  not present in database
Track  3  not present in database
Track  4  not present in database
Track  5  not present in database
Track  6  not present in database
Track  7  not present in database
Track  8  not present in database
Track  9  not present in database
Track 10  not present in database
Track 11  not present in database
Track 12  not present in database
Track 13  not present in database

None of the tracks are present in the AccurateRip database

End of status report

Код:

Exact Audio Copy V1.0 beta 1 from 15. November 2010

EAC extraction logfile from 5. May 2014, 1:01

Bad Boys Blue / The Original Maxi-Singles Collection CD2

Used drive  : PIONEER DVD-RW  DVR-215   Adapter: 1  ID: 0

Read mode               : Secure
Utilize accurate stream : Yes
Defeat audio cache      : Yes
Make use of C2 pointers : No

Read offset correction                      : 48
Overread into Lead-In and Lead-Out          : No
Fill up missing offset samples with silence : Yes
Delete leading and trailing silent blocks   : No
Null samples used in CRC calculations       : Yes
Used interface                              : Native Win32 interface for Win NT & 2000

Used output format              : User Defined Encoder
Selected bitrate                : 1024 kBit/s
Quality                         : High
Add ID3 tag                     : No
Command line compressor         : G:\PROGRAMY\EAC\Exact Audio Copy\FLAC\flac.exe
Additional command line options : -8 -V -T "ARTIST=%a" -T "TITLE=%t" -T "ALBUM=%g" -T "DATE=%y" -T "TRACKNUMBER=%n" -T "GENRE=%m" -T "COMMENT=EAC FLAC -8" %s

TOC of the extracted CD

     Track |   Start  |  Length  | Start sector | End sector
    ---------------------------------------------------------
        1  |  0:00.00 |  6:25.57 |         0    |    28931
        2  |  6:25.57 |  4:10.41 |     28932    |    47722
        3  | 10:36.23 |  4:32.07 |     47723    |    68129
        4  | 15:08.30 |  4:26.54 |     68130    |    88133
        5  | 19:35.09 |  4:58.23 |     88134    |   110506
        6  | 24:33.32 |  6:52.09 |    110507    |   141415
        7  | 31:25.41 |  4:09.00 |    141416    |   160090
        8  | 35:34.41 |  5:53.25 |    160091    |   186590
        9  | 41:27.66 |  6:20.62 |    186591    |   215152
       10  | 47:48.53 |  8:19.55 |    215153    |   252632
       11  | 56:08.33 |  6:10.43 |    252633    |   280425
       12  | 62:19.01 |  6:45.49 |    280426    |   310849
       13  | 69:04.50 |  6:37.25 |    310850    |   340649

Range status and errors

Selected range

     Filename G:\Music\Bad Boys Blue – The Original Maxi-Singles Collection\Bad Boys Blue – The Original Maxi-Singles Collection CD2\Bad Boys Blue - The Original Maxi-Singles Collection CD2.wav

     Peak level 97.0 %
     Extraction speed 0.7 X
     Range quality 100.0 %
     Test CRC 9F11DA6B
     Copy CRC 9F11DA6B
     Copy OK

No errors occurred

AccurateRip summary

Track  1  not present in database
Track  2  not present in database
Track  3  not present in database
Track  4  not present in database
Track  5  not present in database
Track  6  not present in database
Track  7  not present in database
Track  8  not present in database
Track  9  not present in database
Track 10  not present in database
Track 11  not present in database
Track 12  not present in database
Track 13  not present in database

None of the tracks are present in the AccurateRip database

End of status report

Код:

REM GENRE Eurodance
REM DATE 2014
REM DISCID BD12520D
REM COMMENT "ExactAudioCopy v1.0b1"
PERFORMER "Bad Boys Blue"
TITLE "The Original Maxi-Singles Collection CD1"
FILE "Bad Boys Blue - The Original Maxi-Singles Collection CD1.flac" WAVE
  TRACK 01 AUDIO
    TITLE "L.O.V.E. In My Car (12'' Version)"
    PERFORMER "Bad Boys Blue"
    INDEX 01 00:00:00
  TRACK 02 AUDIO
    TITLE "You're A Woman (Long Version)"
    PERFORMER "Bad Boys Blue"
    INDEX 01 05:20:65
  TRACK 03 AUDIO
    TITLE "Pretty Young Girl (12'' Version)"
    PERFORMER "Bad Boys Blue"
    INDEX 01 10:42:33
  TRACK 04 AUDIO
    TITLE "Kisses And Tears (My One And Only) (Long Version)"
    PERFORMER "Bad Boys Blue"
    INDEX 01 16:27:66
  TRACK 05 AUDIO
    TITLE "Love Really Hurts Without You (12'' Version)"
    PERFORMER "Bad Boys Blue"
    INDEX 01 22:10:07
  TRACK 06 AUDIO
    TITLE "I Wanna Hear Your Heartbeat (Sunday Girl) (12'' Version)"
    PERFORMER "Bad Boys Blue"
    INDEX 01 27:59:13
  TRACK 07 AUDIO
    TITLE "Gimme Gimme Your Lovin' (Little Lady) (Long Version)"
    PERFORMER "Bad Boys Blue"
    INDEX 01 34:28:32
  TRACK 08 AUDIO
    TITLE "Kiss You All Over, Baby (12'' Version)"
    PERFORMER "Bad Boys Blue"
    INDEX 01 39:36:49
  TRACK 09 AUDIO
    TITLE "Come Back And Stay (Dance Mix)"
    PERFORMER "Bad Boys Blue"
    INDEX 01 45:50:23
  TRACK 10 AUDIO
    TITLE "Don't Walk Away Suzanne (Dance Mix"
    PERFORMER "Bad Boys Blue"
    INDEX 01 53:27:23
  TRACK 11 AUDIO
    TITLE "Lovers In The Sand (Long Version)"
    PERFORMER "Bad Boys Blue"
    INDEX 01 60:40:09
  TRACK 12 AUDIO
    TITLE "A World Without You( Michelle) (Dance Mix)"
    PERFORMER "Bad Boys Blue"
    INDEX 01 66:30:31
  TRACK 13 AUDIO
    TITLE "Hungry For Love (Club Mix)"
    PERFORMER "Bad Boys Blue"
    INDEX 01 72:16:14

Код:

REM GENRE Eurodance
REM DATE 2014
REM DISCID C711BE0D
REM COMMENT "ExactAudioCopy v1.0b1"
PERFORMER "Bad Boys Blue"
TITLE "The Original Maxi-Singles Collection CD2"
FILE "Bad Boys Blue - The Original Maxi-Singles Collection CD2.flac" WAVE
  TRACK 01 AUDIO
    TITLE "L.O.V.E. In My Car (Special Remix '88)"
    PERFORMER "Bad Boys Blue"
    INDEX 01 00:00:00
  TRACK 02 AUDIO
    TITLE "Hot Girls - Bad Boys"
    PERFORMER "Bad Boys Blue"
    INDEX 01 06:25:57
  TRACK 03 AUDIO
    TITLE "Pretty Young Girl (Club Mix '88)"
    PERFORMER "Bad Boys Blue"
    INDEX 01 10:36:23
  TRACK 04 AUDIO
    TITLE "Lady Blue"
    PERFORMER "Bad Boys Blue"
    INDEX 01 15:08:30
  TRACK 05 AUDIO
    TITLE "Midnight Hour"
    PERFORMER "Bad Boys Blue"
    INDEX 01 19:35:09
  TRACK 06 AUDIO
    TITLE "Come Back And Stay (Audio Classic Mix)"
    PERFORMER "Bad Boys Blue"
    INDEX 01 24:33:32
  TRACK 07 AUDIO
    TITLE "Don't Walk Away Suzanne (Special T.T. Mix)"
    PERFORMER "Bad Boys Blue"
    INDEX 01 31:25:41
  TRACK 08 AUDIO
    TITLE "Lovers In The Sand (Special Heavy DJ Dub Remix)"
    PERFORMER "Bad Boys Blue"
    INDEX 01 35:34:41
  TRACK 09 AUDIO
    TITLE "A World Without You (Michelle) (Remix)"
    PERFORMER "Bad Boys Blue"
    INDEX 01 41:27:66
  TRACK 10 AUDIO
    TITLE "Hungry For Love (Hot-House Sex Mix)"
    PERFORMER "Bad Boys Blue"
    INDEX 01 47:48:53
  TRACK 11 AUDIO
    TITLE "Lady In Black (Shakespearean Mix)"
    PERFORMER "Bad Boys Blue"
    INDEX 01 56:08:33
  TRACK 12 AUDIO
    TITLE "A Train To Nowhere (Club Mix)"
    PERFORMER "Bad Boys Blue"
    INDEX 01 62:19:01
  TRACK 13 AUDIO
    TITLE "How I Need You (Long Distance Mix)"
    PERFORMER "Bad Boys Blue"
    INDEX 01 69:04:50
Download

Скачать (бесплатно и на максимальной скорости)!

Как скачивать  ·   Что такое torrent (торрент)  ·   Рейтинг и ограничения

Сайт не распространяет и не хранит электронные версии произведений, а лишь предоставляет доступ к создаваемому пользователями каталогу ссылок на торрент-файлы, которые содержат только списки хеш-сумм


 
Показать сообщения:    
Ответить на тему

Текущее время: 18-Фев 00:28

Часовой пояс: GMT + 3



Вы не можете начинать темы
Вы не можете отвечать на сообщения
Вы не можете редактировать свои сообщения
Вы не можете удалять свои сообщения
Вы не можете голосовать в опросах
Вы не можете прикреплять файлы к сообщениям
Вы не можете скачивать файлы



В начало страницы  •