Loading...
Error
Регистрация  · 
Имя: Пароль:    
 ·  Забыли пароль?
Правила пользования ресурсом

Сегодня идет свободное скачивание без начисления скачанного

Приключения капитана Врунгеля (Давид Черкасский) (13 серий из 13) [1976-1979, мультфильм, DVDRip-AVC] [Полная реставрация]

Ответить на тему
 
Автор Сообщение

O.S.A.


post 02-Фев-2014 16:12

 



Приключения капитана Врунгеля


Год выпуска: 1976—1979
Страна: СССР
Производство: «Киевнаучфильм»
Издание: «Крупный план» - Полная реставрация изображения и звука
Жанр: мультфильм
Продолжительность: ~02:13:00
Перевод: Не требуется
Режиссер: Давид Черкасский
Роли озвучивали: Георгий Кишко, Зиновий Гердт, Семен Фарада, Эдуард Назаров, Евгений Паперный, Григорий Шпигель, Вениамин Смехов, Александр Бурмистров...
Описание: Веселая повесть о невероятных приключениях капитана Врунгеля, его старшего помощника Лома и матроса Фукса, совершивших кругосветное путешествие на яхте «Беда».
Сколько раз мы смотрели этот шедевр советской анимации, столько раз восхищались тремя колоритнейшими персонажами — парой негодяев (с чудными фамилиями — Бандито и Гангстерито) и отважным суперагентом 00X. Особенно веселил суперагент — своим писклявым голоском, невиданной техникой (вертолет в виде большой собаки — ха-ха-ха!) и абсолютной неуязвимостью. И топили его, и взрывали, и жгли, а жив, курилка! Да ещё и апломба не теряет. И бандиты тоже очень забавные — один маленький, другой большой, весь мультик они отжигали со своими попытками украсть ценную статую.



Качество: DVDRip-AVC
Формат: MKV
Видео кодек: H.264
Аудио кодек: AC3
Видео: [email protected] (1.33:1), 25.000 fps, ~1955 kbps avg, 0.189 bit/pixel
Аудио: 48.0 kHz, AC3 Dolby Digital, 3/2 (L,C,R,l,r) + LFE ch, ~448.00 kbps avg
Cубтитры: нет

1-я серия (09.46 мин)
2-я серия (09.37 мин)
3-я серия (09.29 мин)
4-я серия (10.10 мин)
5-я серия (09.16 мин)
6-я серия (09.52 мин)
7-я серия (10.06 мин)
8-я серия (10.04 мин)
9-я серия (09.47 мин)
10-я серия (10.10 мин)
11-я серия (09.38 мин)
12-я серия (09.56 мин)
13-я серия (10.09 мин)
General
Format : Matroska
File size : 2.19 GiB
Duration : 2h 8mn
Overall bit rate : 2 451 Kbps
Movie name : Приключения капитана Врунгеля
Encoded date : UTC 2010-11-14 20:08:04
Writing application : mkvmerge v2.4.2 ('Oh My God') built on Jan 18 2009 17:30:28
Writing library : libebml v0.7.7 + libmatroska v0.8.1

Video
ID : 1
Format : AVC
Format/Info : Advanced Video Codec
Format profile : [email protected]
Format settings, CABAC : Yes
Format settings, ReFrames : 8 frames
Muxing mode : Container [email protected]
Codec ID : V_MPEG4/ISO/AVC
Duration : 2h 8mn
Bit rate : 1 955 Kbps
Nominal bit rate : 2 000 Kbps
Width : 720 pixels
Height : 576 pixels
Display aspect ratio : 4:3
Original display aspect ratio : 5:4
Frame rate : 25.000 fps
Standard : PAL
Resolution : 8 bits
Colorimetry : 4:2:0
Scan type : Progressive
Bits/(Pixel*Frame) : 0.189
Stream size : 1.75 GiB (80%)
Title : Приключения капитана Врунгеля
Writing library : x264 core 56 svn-680
Encoding settings : cabac=1 / ref=5 / deblock=1:0:0 / analyse=0x3:0x133 / me=umh / subme=7 / brdo=0 / mixed_ref=0 / me_range=16 / chroma_me=1 / trellis=0 / 8x8dct=1 / cqm=0 / deadzone=21,11 / chroma_qp_offset=0 / threads=1 / nr=0 / decimate=1 / mbaff=0 / bframes=3 / b_pyramid=1 / b_adapt=1 / b_bias=0 / direct=1 / wpredb=1 / bime=0 / keyint=250 / keyint_min=25 / scenecut=40 / rc=2pass / bitrate=2000 / ratetol=1.0 / rceq='blurCplx^(1-qComp)' / qcomp=0.60 / qpmin=10 / qpmax=51 / qpstep=4 / cplxblur=20.0 / qblur=0.5 / ip_ratio=1.40 / pb_ratio=1.30

Audio
ID : 2
Format : AC-3
Format/Info : Audio Coding 3
Codec ID : A_AC3
Duration : 2h 8mn
Bit rate mode : Constant
Bit rate : 448 Kbps
Channel(s) : 6 channels
Channel positions : Front: L C R, Side: L R, LFE
Sampling rate : 48.0 KHz
Stream size : 411 MiB (18%)
Language : Russian

Menu
00:00:00.000 : ru:1-я серия
00:09:45.000 : ru:2-я серия
00:19:24.000 : ru:3-я серия
00:28:55.000 : ru:4-я серия
00:39:05.000 : ru:5-я серия
00:48:21.000 : ru:6-я серия
00:58:13.000 : ru:7-я серия
01:08:20.000 : ru:8-я серия
01:18:24.000 : ru:9-я серия
01:28:11.000 : ru:10-я серия
01:38:22.000 : ru:11-я серия
01:48:00.000 : ru:12-я серия
01:57:56.000 : ru:13-я серия




Download

Скачать (бесплатно и на максимальной скорости)!

Как скачивать  ·   Что такое torrent (торрент)  ·   Рейтинг и ограничения

Сайт не распространяет и не хранит электронные версии произведений, а лишь предоставляет доступ к создаваемому пользователями каталогу ссылок на торрент-файлы, которые содержат только списки хеш-сумм


 
Показать сообщения:    
Ответить на тему

Текущее время: 19-Дек 13:11

Часовой пояс: GMT + 3



Вы не можете начинать темы
Вы не можете отвечать на сообщения
Вы не можете редактировать свои сообщения
Вы не можете удалять свои сообщения
Вы не можете голосовать в опросах
Вы не можете прикреплять файлы к сообщениям
Вы не можете скачивать файлы



В начало страницы  •