Loading...
Error
Регистрация  · 
Имя: Пароль:    
 ·  Забыли пароль?
Правила пользования ресурсом

Сегодня идет свободное скачивание без начисления скачанного

National Geographic: В поисках акул. Самые большие челюсти / Экспедиция - Белая акула / Shark men. Greatest Bites (Крис Фишер) [2009, документальный, HDTVRip 1080p] VO

Ответить на тему
 
Автор Сообщение

O.S.A.


post 20-Сен-2013 18:10

 



National Geographic: В поисках акул. Самые большие челюсти / Экспедиция - Белая акула
National Geographic: Shark men. Greatest Bites


Год выхода: 2009
Страна: США
Студия: Fischer Productions, National Geographic Channel
Жанр: документальный
Продолжительность: 00:45:50
Перевод: Профессиональный (одноголосый закадровый) [АРК-ТВ Игорь Тарадайкин]
Режиссер: Крис Фишер
О фильме: Это одно из самых опасных существ на планете. Большая белая акула. Мало кто будет их искать, не говоря уже о том, что бы их поймать! "Shark Men" - это документальный сериал о команде рыбаков и ученых, которые идут по следу, и активно пытаются поймать этих опасных хищников. Их цель - раскрыть тайны впечатляющей миграции акул, селекции и продолжения рода. Гонки через океан со скоростью более чем 40 километров в час, за более чем 300 отточенными зубами и 2200 килограммовыми тушами, ради того, что бы поймать большую белую акулу. Поймав акулу, команда планирует поднять их из воды, изучить, пометить, а затем отпустить невредимыми обратно в океан. Но смогут ли они достаточно близко изучить этих страшных рыб?



Качество видео: HDTVRip 1080p
Формат видео: MKV
Видео кодек: H.264
Аудио кодек: АС3
Видео: 1920x1080 (1.78:1), 25.000 fps, MPEG-4 AVC, ~11.5 Mbps avg, 0.222 bit/pixel
Аудио: 48.0 kHz, AC3 Dolby Digital, 2/0 (L,R) ch, ~384.00 kbps avg
Субтитры: нет

Формат : Matroska
Версия формата : Version 2
Размер файла : 3,81 Гбайт
Продолжительность : 45 м.
Общий поток : 11,9 Мбит/сек
Название фильма : Release for MediaClub by AlexAndr92
Дата кодирования : UTC 2013-09-18 18:13:27
Программа кодирования : mkvmerge v4.0.0 ('The Stars were mine') сборка от Jun 6 2010 16:18:42
Библиотека кодирования : libebml v1.0.0 + libmatroska v1.0.0

Видео
Идентификатор : 1
Формат : AVC
Формат/Информация : Advanced Video Codec
Профиль формата : [email protected]
Параметр CABAC формата : Да
Параметр ReFrames формата : 4 кадра
Идентификатор кодека : V_MPEG4/ISO/AVC
Продолжительность : 45 м.
Битрейт : 11,5 Мбит/сек
Ширина : 1920 пикселей
Высота : 1080 пикселей
Соотношение сторон : 16:9
Режим частоты кадров : Постоянный
Частота кадров : 25,000 кадров/сек
Цветовое пространство : YUV
Субдискретизация насыщенности : 4:2:0
Битовая глубина : 8 бит
Тип развёртки : Прогрессивная
Бит/(Пиксели*Кадры) : 0.222
Размер потока : 3,61 Гбайт (95%)
Библиотека кодирования : x264 core 130 r2273 b3065e6
Настройки программы : cabac=1 / ref=4 / deblock=1:-1:-1 / analyse=0x3:0x133 / me=umh / subme=11 / psy=1 / psy_rd=1.00:0.15 / mixed_ref=1 / me_range=32 / chroma_me=1 / trellis=2 / 8x8dct=1 / cqm=0 / deadzone=21,11 / fast_pskip=0 / chroma_qp_offset=-3 / threads=6 / lookahead_threads=1 / sliced_threads=0 / nr=0 / decimate=0 / interlaced=0 / bluray_compat=0 / constrained_intra=0 / bframes=8 / b_pyramid=2 / b_adapt=2 / b_bias=0 / direct=3 / weightb=1 / open_gop=0 / weightp=2 / keyint=250 / keyint_min=25 / scenecut=40 / intra_refresh=0 / rc=2pass / mbtree=0 / bitrate=11500 / ratetol=1.0 / qcomp=0.60 / qpmin=0 / qpmax=69 / qpstep=4 / cplxblur=20.0 / qblur=0.5 / ip_ratio=1.40 / pb_ratio=1.30 / aq=1:1.00
Default : Нет
Forced : Нет

Аудио
Идентификатор : 2
Формат : AC-3
Формат/Информация : Audio Coding 3
Расширение режима : CM (complete main)
Параметр Endianness формата : Big
Идентификатор кодека : A_AC3
Продолжительность : 45 м.
Вид битрейта : Постоянный
Битрейт : 384 Кбит/сек
Каналы : 2 канала
Расположение каналов : Front: L R
Частота : 48,0 КГц
Битовая глубина : 16 бит
Метод сжатия : С потерями
Размер потока : 126 Мбайт (3%)
Default : Нет
Forced : Нет




Download

Скачать (бесплатно и на максимальной скорости)!

Как скачивать  ·   Что такое torrent (торрент)  ·   Рейтинг и ограничения

Сайт не распространяет и не хранит электронные версии произведений, а лишь предоставляет доступ к создаваемому пользователями каталогу ссылок на торрент-файлы, которые содержат только списки хеш-сумм


 
Показать сообщения:    
Ответить на тему

Текущее время: 20-Авг 07:58

Часовой пояс: GMT + 3



Вы не можете начинать темы
Вы не можете отвечать на сообщения
Вы не можете редактировать свои сообщения
Вы не можете удалять свои сообщения
Вы не можете голосовать в опросах
Вы не можете прикреплять файлы к сообщениям
Вы не можете скачивать файлы



В начало страницы  •