Loading...
Error
Регистрация  · 
Имя: Пароль:    
 ·  Забыли пароль?
Правила пользования ресурсом

Обладатель VIP статуса на 24 часа: Acrhi73
стань следующим читай правила
Сегодня идет свободное скачивание без начисления скачанного

(Rock) Robin Beck - Underneath - 2013, FLAC (image + .cue), lossless

Ответить на тему
 
Автор Сообщение

sergej644


post 13-Сен-2013 10:33

 


Robin Beck - Underneath

Страна: USA
Жанр: Rock
Год выпуска: 2013
Формат: FLAC (image + .cue)
Битрейт аудио: lossless
Продолжительность: 00:41:22



01. Wrecking Ball (03:53)
02. Aint That Just Like Love (03:16)
03. Sprain (03:47)
04. Underneath (03:22)
05. Catfight (03:04)
06. Check Your Attitude (02:49)
07. Burnin Me Down (03:50)
08. Perfect Storm (04:13)
09. Ya Can? Figth Love (04:40)
10. I Swear The Nights (04:37)
11. Follow You (03:46)

Код:

Exact Audio Copy V1.0 beta 3 from 29. August 2011

EAC extraction logfile from 7. September 2013, 23:22

Robin Beck / Underneath (HM08C108)

Used drive  : PLEXTOR DVDR   PX-860A   Adapter: 0  ID: 3

Read mode               : Secure
Utilize accurate stream : Yes
Defeat audio cache      : Yes
Make use of C2 pointers : No

Read offset correction                      : 96
Overread into Lead-In and Lead-Out          : No
Fill up missing offset samples with silence : Yes
Delete leading and trailing silent blocks   : No
Null samples used in CRC calculations       : Yes
Used interface                              : Installed external ASPI interface

Used output format              : User Defined Encoder
Selected bitrate                : 1024 kBit/s
Quality                         : High
Add ID3 tag                     : Yes
Command line compressor         : E:\Program Files (x86)\Exact Audio Copy\Flac\flac.exe
Additional command line options : -V -8 -T "Date=%year%" -T "Genre=%genre%" %source%

TOC of the extracted CD

     Track |   Start  |  Length  | Start sector | End sector
    ---------------------------------------------------------
        1  |  0:00.00 |  3:53.68 |         0    |    17542
        2  |  3:53.68 |  3:16.00 |     17543    |    32242
        3  |  7:09.68 |  3:48.00 |     32243    |    49342
        4  | 10:57.68 |  3:22.00 |     49343    |    64492
        5  | 14:19.68 |  3:04.51 |     64493    |    78343
        6  | 17:24.44 |  2:49.29 |     78344    |    91047
        7  | 20:13.73 |  3:50.74 |     91048    |   108371
        8  | 24:04.72 |  4:13.00 |    108372    |   127346
        9  | 28:17.72 |  4:40.00 |    127347    |   148346
       10  | 32:57.72 |  4:37.31 |    148347    |   169152
       11  | 37:35.28 |  3:46.66 |    169153    |   186168

Range status and errors

Selected range

     Filename D:\MUSIC\Robin Beck - Underneath (HM08C108).wav

     Peak level 100.0 %
     Extraction speed 3.5 X
     Range quality 100.0 %
     Test CRC 6F9FB55A
     Copy CRC 6F9FB55A
     Copy OK

No errors occurred

AccurateRip summary

Track  1  cannot be verified as accurate (confidence 2)  [8E2E1E9C], AccurateRip returned [8DF95AB6]  (AR v2)
Track  2  cannot be verified as accurate (confidence 2)  [033DBC43], AccurateRip returned [276B0CBE]  (AR v2)
Track  3  cannot be verified as accurate (confidence 2)  [1C55E4EF], AccurateRip returned [A1328DE6]  (AR v2)
Track  4  cannot be verified as accurate (confidence 2)  [10BD911F], AccurateRip returned [90CC48BE]  (AR v2)
Track  5  cannot be verified as accurate (confidence 2)  [BFDB7688], AccurateRip returned [D2EB7C60]  (AR v2)
Track  6  cannot be verified as accurate (confidence 2)  [123B4822], AccurateRip returned [93A53C19]  (AR v2)
Track  7  cannot be verified as accurate (confidence 2)  [E814BC76], AccurateRip returned [F48EC2FD]  (AR v2)
Track  8  cannot be verified as accurate (confidence 2)  [3B975E2D], AccurateRip returned [1AF74FEE]  (AR v2)
Track  9  cannot be verified as accurate (confidence 2)  [C2153CA4], AccurateRip returned [D7E025FA]  (AR v2)
Track 10  cannot be verified as accurate (confidence 2)  [FF9A096A], AccurateRip returned [59542E7A]  (AR v2)
Track 11  cannot be verified as accurate (confidence 2)  [E14EDA93], AccurateRip returned [27C6A1E4]  (AR v2)

No tracks could be verified as accurate
You may have a different pressing from the one(s) in the database

End of status report

Код:

REM GENRE "Hard Rock"
REM DATE 2013
REM DISCID 9D09B20B
REM COMMENT "ExactAudioCopy v1.0b3"
PERFORMER "Robin Beck"
TITLE "Underneath (HM08C108)"
FILE "Robin Beck - Underneath (HM08C108).flac" WAVE
  TRACK 01 AUDIO
    TITLE "01. Wrecking Ball"
    PERFORMER "Robin Beck"
    ISRC QMFX31350001
    INDEX 01 00:00:00
  TRACK 02 AUDIO
    TITLE "02. Aint That Just Like Love"
    PERFORMER "Robin Beck"
    ISRC QMFX31350002
    INDEX 00 03:51:68
    INDEX 01 03:53:68
  TRACK 03 AUDIO
    TITLE "03. Sprain"
    PERFORMER "Robin Beck"
    ISRC QMFX31350003
    INDEX 00 07:07:68
    INDEX 01 07:09:68
  TRACK 04 AUDIO
    TITLE "04. Underneath"
    PERFORMER "Robin Beck"
    ISRC QMFX31350004
    INDEX 00 10:55:68
    INDEX 01 10:57:68
  TRACK 05 AUDIO
    TITLE "05. Catfight"
    PERFORMER "Robin Beck"
    ISRC QMFX31350005
    INDEX 00 14:17:68
    INDEX 01 14:19:68
  TRACK 06 AUDIO
    TITLE "06. Check Your Attitude"
    PERFORMER "Robin Beck"
    ISRC QMFX31350006
    INDEX 00 17:22:44
    INDEX 01 17:24:44
  TRACK 07 AUDIO
    TITLE "07. Burnin Me Down"
    PERFORMER "Robin Beck"
    ISRC QMFX31350007
    INDEX 00 20:11:73
    INDEX 01 20:13:73
  TRACK 08 AUDIO
    TITLE "08. Perfect Storm"
    PERFORMER "Robin Beck"
    ISRC QMFX31350008
    INDEX 00 24:03:03
    INDEX 01 24:04:72
  TRACK 09 AUDIO
    TITLE "09. Ya Can’t Figth Love"
    PERFORMER "Robin Beck"
    ISRC QMFX31350009
    INDEX 00 28:15:72
    INDEX 01 28:17:72
  TRACK 10 AUDIO
    TITLE "10. I Swear The Nights"
    PERFORMER "Robin Beck"
    ISRC QMFX31350010
    INDEX 00 32:55:72
    INDEX 01 32:57:72
  TRACK 11 AUDIO
    TITLE "11. Follow You"
    PERFORMER "Robin Beck"
    ISRC QMFX31350011
    INDEX 00 37:33:28
    INDEX 01 37:35:28
Download

Скачать (бесплатно и на максимальной скорости)!

Как скачивать  ·   Что такое torrent (торрент)  ·   Рейтинг и ограничения

Сайт не распространяет и не хранит электронные версии произведений, а лишь предоставляет доступ к создаваемому пользователями каталогу ссылок на торрент-файлы, которые содержат только списки хеш-сумм


 
Показать сообщения:    
Ответить на тему

Текущее время: 05-Мар 03:02

Часовой пояс: GMT + 3



Вы не можете начинать темы
Вы не можете отвечать на сообщения
Вы не можете редактировать свои сообщения
Вы не можете удалять свои сообщения
Вы не можете голосовать в опросах
Вы не можете прикреплять файлы к сообщениям
Вы не можете скачивать файлы



В начало страницы  •