Loading...
Error
Регистрация  · 
Имя: Пароль:    
 ·  Забыли пароль?
Правила пользования ресурсом

Сегодня идет свободное скачивание без начисления скачанного

(Pop) Kylie Minogue - The Best Of Kylie Minogue - 2012, FLAC (tracks), lossless

Ответить на тему
 
Автор Сообщение

sergej644


post 11-Сен-2013 18:44

 


Kylie Minogue - The Best Of Kylie Minogue

Страна: Australia || Жанр: Pop || Год выпуска: 2012 || Формат: FLAC (tracks) || Битрейт аудио: lossless || Продолжительность: 01:14:57

01. Cant Get You Out Of My Head (03:52)
02. Spinning Around (03:27)
03. I Should Be So Lucky (03:22)
04. Lov[video][/video]e At First Sight (03:58)
05. In Your Eyes (03:19)
06. Kids (04:18)
07. Better The Devil You Know (03:52)
08. All The Lovers (03:19)
09. Give Me Just A Little More Time (03:06)
10. Celebration (03:57)
11. Slow (03:14)
12. Red Blooded Woman (04:19)
13. I Believe In You (03:20)
14. On A Night Like This (03:32)
15. Confide In Me (04:26)
16. Get Outta My Way (03:39)
17. The Locomotion (03:13)
18. Tears On My Pillow (02:28)
19. Wow (03:13)
20. In My Arms (03:32)
21. Never Too Late (03:20)


Код:

Exact Audio Copy V1.0 beta 3 from 29. August 2011

EAC extraction logfile from 2. June 2012, 20:59

Kylie Minogue / The Best Of

Used drive  : PLEXTOR DVDR   PX-891SA   Adapter: 0  ID: 4

Read mode               : Secure
Utilize accurate stream : Yes
Defeat audio cache      : Yes
Make use of C2 pointers : No

Read offset correction                      : 6
Overread into Lead-In and Lead-Out          : No
Fill up missing offset samples with silence : Yes
Delete leading and trailing silent blocks   : No
Null samples used in CRC calculations       : Yes
Used interface                              : Native Win32 interface for Win NT & 2000
Gap handling                                : Appended to previous track

Used output format              : User Defined Encoder
Selected bitrate                : 1024 kBit/s
Quality                         : High
Add ID3 tag                     : No
Command line compressor         : C:\Program Files (x86)\Exact Audio Copy\FLAC\FLAC.EXE
Additional command line options : -0 -V -T "ARTIST=%artist%" -T "TITLE=%title%" -T "ALBUM=%albumtitle%" -T "DATE=%year%" -T "TRACKNUMBER=%tracknr%" -T "TOTALTRACKS=%numtracks%" -T "GENRE=%genre%" -T "COMMENT=Naftamusic Release!" %source%

TOC of the extracted CD

     Track |   Start  |  Length  | Start sector | End sector
    ---------------------------------------------------------
        1  |  0:00.00 |  3:52.31 |         0    |    17430
        2  |  3:52.31 |  3:27.53 |     17431    |    33008
        3  |  7:20.09 |  3:22.31 |     33009    |    48189
        4  | 10:42.40 |  3:58.44 |     48190    |    66083
        5  | 14:41.09 |  3:19.22 |     66084    |    81030
        6  | 18:00.31 |  4:18.73 |     81031    |   100453
        7  | 22:19.29 |  3:52.19 |    100454    |   117872
        8  | 26:11.48 |  3:19.62 |    117873    |   132859
        9  | 29:31.35 |  3:06.71 |    132860    |   146880
       10  | 32:38.31 |  3:57.44 |    146881    |   164699
       11  | 36:36.00 |  3:14.27 |    164700    |   179276
       12  | 39:50.27 |  4:19.74 |    179277    |   198775
       13  | 44:10.26 |  3:20.07 |    198776    |   213782
       14  | 47:30.33 |  3:32.71 |    213783    |   229753
       15  | 51:03.29 |  4:26.16 |    229754    |   249719
       16  | 55:29.45 |  3:39.60 |    249720    |   266204
       17  | 59:09.30 |  3:13.42 |    266205    |   280721
       18  | 62:22.72 |  2:28.03 |    280722    |   291824
       19  | 64:51.00 |  3:13.40 |    291825    |   306339
       20  | 68:04.40 |  3:32.06 |    306340    |   322245
       21  | 71:36.46 |  3:20.54 |    322246    |   337299

Track  1

     Filename I:\Nafta uj\Kylie Minogue - The Best Of Kylie Minogue (2012)[FLAC]-Naftamusic\01 - Cant Get You Out Of My Head.wav

     Pre-gap length  0:00:02.00

     Peak level 98.0 %
     Extraction speed 3.2 X
     Track quality 99.9 %
     Test CRC 050798ED
     Copy CRC 050798ED
     Track not present in AccurateRip database
     Copy OK

Track  2

     Filename I:\Nafta uj\Kylie Minogue - The Best Of Kylie Minogue (2012)[FLAC]-Naftamusic\02 - Spinning Around.wav

     Pre-gap length  0:00:01.39

     Peak level 98.0 %
     Extraction speed 4.2 X
     Track quality 100.0 %
     Test CRC 427404EE
     Copy CRC 427404EE
     Track not present in AccurateRip database
     Copy OK

Track  3

     Filename I:\Nafta uj\Kylie Minogue - The Best Of Kylie Minogue (2012)[FLAC]-Naftamusic\03 - I Should Be So Lucky.wav

     Pre-gap length  0:00:00.39

     Peak level 82.1 %
     Extraction speed 4.5 X
     Track quality 100.0 %
     Test CRC 695C2FB7
     Copy CRC 695C2FB7
     Track not present in AccurateRip database
     Copy OK

Track  4

     Filename I:\Nafta uj\Kylie Minogue - The Best Of Kylie Minogue (2012)[FLAC]-Naftamusic\04 - Love At First Sight.wav

     Peak level 98.0 %
     Extraction speed 4.9 X
     Track quality 100.0 %
     Test CRC 152A1128
     Copy CRC 152A1128
     Track not present in AccurateRip database
     Copy OK

Track  5

     Filename I:\Nafta uj\Kylie Minogue - The Best Of Kylie Minogue (2012)[FLAC]-Naftamusic\05 - In Your Eyes.wav

     Pre-gap length  0:00:00.29

     Peak level 98.0 %
     Extraction speed 5.0 X
     Track quality 100.0 %
     Test CRC 9321314A
     Copy CRC 9321314A
     Track not present in AccurateRip database
     Copy OK

Track  6

     Filename I:\Nafta uj\Kylie Minogue - The Best Of Kylie Minogue (2012)[FLAC]-Naftamusic\06 - Kids.wav

     Pre-gap length  0:00:01.52

     Peak level 89.0 %
     Extraction speed 4.5 X
     Track quality 99.9 %
     Test CRC AB0988E0
     Copy CRC AB0988E0
     Track not present in AccurateRip database
     Copy OK

Track  7

     Filename I:\Nafta uj\Kylie Minogue - The Best Of Kylie Minogue (2012)[FLAC]-Naftamusic\07 - Better The Devil You Know.wav

     Pre-gap length  0:00:00.66

     Peak level 99.9 %
     Extraction speed 5.7 X
     Track quality 100.0 %
     Test CRC DE0C42C6
     Copy CRC DE0C42C6
     Track not present in AccurateRip database
     Copy OK

Track  8

     Filename I:\Nafta uj\Kylie Minogue - The Best Of Kylie Minogue (2012)[FLAC]-Naftamusic\08 - All The Lovers.wav

     Pre-gap length  0:00:00.65

     Peak level 98.0 %
     Extraction speed 4.4 X
     Track quality 99.9 %
     Test CRC FDCC4288
     Copy CRC FDCC4288
     Track not present in AccurateRip database
     Copy OK

Track  9

     Filename I:\Nafta uj\Kylie Minogue - The Best Of Kylie Minogue (2012)[FLAC]-Naftamusic\09 - Give Me Just A Little More Time.wav

     Pre-gap length  0:00:00.33

     Peak level 99.9 %
     Extraction speed 5.8 X
     Track quality 100.0 %
     Test CRC 03D98CC9
     Copy CRC 03D98CC9
     Track not present in AccurateRip database
     Copy OK

Track 10

     Filename I:\Nafta uj\Kylie Minogue - The Best Of Kylie Minogue (2012)[FLAC]-Naftamusic\10 - Celebration.wav

     Pre-gap length  0:00:01.23

     Peak level 99.9 %
     Extraction speed 6.3 X
     Track quality 100.0 %
     Test CRC 1321D55C
     Copy CRC 1321D55C
     Track not present in AccurateRip database
     Copy OK

Track 11

     Filename I:\Nafta uj\Kylie Minogue - The Best Of Kylie Minogue (2012)[FLAC]-Naftamusic\11 - Slow.wav

     Pre-gap length  0:00:00.68

     Peak level 98.0 %
     Extraction speed 6.3 X
     Track quality 100.0 %
     Test CRC 99F11E1D
     Copy CRC 99F11E1D
     Track not present in AccurateRip database
     Copy OK

Track 12

     Filename I:\Nafta uj\Kylie Minogue - The Best Of Kylie Minogue (2012)[FLAC]-Naftamusic\12 - Red Blooded Woman.wav

     Pre-gap length  0:00:00.67

     Peak level 99.9 %
     Extraction speed 7.4 X
     Track quality 100.0 %
     Test CRC 89549B67
     Copy CRC 89549B67
     Track not present in AccurateRip database
     Copy OK

Track 13

     Filename I:\Nafta uj\Kylie Minogue - The Best Of Kylie Minogue (2012)[FLAC]-Naftamusic\13 - I Believe In You.wav

     Pre-gap length  0:00:01.33

     Peak level 99.9 %
     Extraction speed 6.7 X
     Track quality 100.0 %
     Test CRC 1D6701E0
     Copy CRC 1D6701E0
     Track not present in AccurateRip database
     Copy OK

Track 14

     Filename I:\Nafta uj\Kylie Minogue - The Best Of Kylie Minogue (2012)[FLAC]-Naftamusic\14 - On A Night Like This.wav

     Pre-gap length  0:00:00.74

     Peak level 99.9 %
     Extraction speed 7.0 X
     Track quality 100.0 %
     Test CRC CFC9AF1A
     Copy CRC CFC9AF1A
     Track not present in AccurateRip database
     Copy OK

Track 15

     Filename I:\Nafta uj\Kylie Minogue - The Best Of Kylie Minogue (2012)[FLAC]-Naftamusic\15 - Confide In Me.wav

     Pre-gap length  0:00:01.13

     Peak level 99.9 %
     Extraction speed 6.0 X
     Track quality 99.9 %
     Test CRC B2A5BF1C
     Copy CRC B2A5BF1C
     Track not present in AccurateRip database
     Copy OK

Track 16

     Filename I:\Nafta uj\Kylie Minogue - The Best Of Kylie Minogue (2012)[FLAC]-Naftamusic\16 - Get Outta My Way.wav

     Pre-gap length  0:00:00.54

     Peak level 98.0 %
     Extraction speed 7.3 X
     Track quality 100.0 %
     Test CRC 5D4B5EA6
     Copy CRC 5D4B5EA6
     Track not present in AccurateRip database
     Copy OK

Track 17

     Filename I:\Nafta uj\Kylie Minogue - The Best Of Kylie Minogue (2012)[FLAC]-Naftamusic\17 - The Locomotion.wav

     Pre-gap length  0:00:01.00

     Peak level 99.9 %
     Extraction speed 5.7 X
     Track quality 99.9 %
     Test CRC 34ED14E6
     Copy CRC 34ED14E6
     Track not present in AccurateRip database
     Copy OK

Track 18

     Filename I:\Nafta uj\Kylie Minogue - The Best Of Kylie Minogue (2012)[FLAC]-Naftamusic\18 - Tears On My Pillow.wav

     Pre-gap length  0:00:00.62

     Peak level 99.9 %
     Extraction speed 5.1 X
     Track quality 99.9 %
     Test CRC 2D81BFED
     Copy CRC 2D81BFED
     Track not present in AccurateRip database
     Copy OK

Track 19

     Filename I:\Nafta uj\Kylie Minogue - The Best Of Kylie Minogue (2012)[FLAC]-Naftamusic\19 - Wow.wav

     Pre-gap length  0:00:00.69

     Peak level 87.4 %
     Extraction speed 5.9 X
     Track quality 99.9 %
     Test CRC 25202FDD
     Copy CRC 25202FDD
     Track not present in AccurateRip database
     Copy OK

Track 20

     Filename I:\Nafta uj\Kylie Minogue - The Best Of Kylie Minogue (2012)[FLAC]-Naftamusic\20 - In My Arms.wav

     Pre-gap length  0:00:00.69

     Peak level 98.0 %
     Extraction speed 7.9 X
     Track quality 100.0 %
     Test CRC 72533658
     Copy CRC 72533658
     Track not present in AccurateRip database
     Copy OK

Track 21

     Filename I:\Nafta uj\Kylie Minogue - The Best Of Kylie Minogue (2012)[FLAC]-Naftamusic\21 - Never Too Late.wav

     Pre-gap length  0:00:00.48

     Peak level 99.9 %
     Extraction speed 7.8 X
     Track quality 100.0 %
     Test CRC 0BB51ADF
     Copy CRC 0BB51ADF
     Track not present in AccurateRip database
     Copy OK

None of the tracks are present in the AccurateRip database

No errors occurred

End of status report

Код:

REM GENRE Pop
REM DATE 2012
REM DISCID 39119115
REM COMMENT "ExactAudioCopy v1.0b3"
FILE "01 - Cant Get You Out Of My Head.wav" WAVE
  TRACK 01 AUDIO
    INDEX 01 00:00:00
  TRACK 02 AUDIO
    INDEX 00 03:50:67
FILE "02 - Spinning Around.wav" WAVE
    INDEX 01 00:00:00
  TRACK 03 AUDIO
    INDEX 00 03:27:14
FILE "03 - I Should Be So Lucky.wav" WAVE
    INDEX 01 00:00:00
FILE "04 - Love At First Sight.wav" WAVE
  TRACK 04 AUDIO
    INDEX 01 00:00:00
  TRACK 05 AUDIO
    INDEX 00 03:58:15
FILE "05 - In Your Eyes.wav" WAVE
    INDEX 01 00:00:00
  TRACK 06 AUDIO
    INDEX 00 03:17:45
FILE "06 - Kids.wav" WAVE
    INDEX 01 00:00:00
  TRACK 07 AUDIO
    INDEX 00 04:18:07
FILE "07 - Better The Devil You Know.wav" WAVE
    INDEX 01 00:00:00
  TRACK 08 AUDIO
    INDEX 00 03:51:29
FILE "08 - All The Lovers.wav" WAVE
    INDEX 01 00:00:00
  TRACK 09 AUDIO
    INDEX 00 03:19:29
FILE "09 - Give Me Just A Little More Time.wav" WAVE
    INDEX 01 00:00:00
  TRACK 10 AUDIO
    INDEX 00 03:05:48
FILE "10 - Celebration.wav" WAVE
    INDEX 01 00:00:00
  TRACK 11 AUDIO
    INDEX 00 03:56:51
FILE "11 - Slow.wav" WAVE
    INDEX 01 00:00:00
  TRACK 12 AUDIO
    INDEX 00 03:13:35
FILE "12 - Red Blooded Woman.wav" WAVE
    INDEX 01 00:00:00
  TRACK 13 AUDIO
    INDEX 00 04:18:41
FILE "13 - I Believe In You.wav" WAVE
    INDEX 01 00:00:00
  TRACK 14 AUDIO
    INDEX 00 03:19:08
FILE "14 - On A Night Like This.wav" WAVE
    INDEX 01 00:00:00
  TRACK 15 AUDIO
    INDEX 00 03:31:58
FILE "15 - Confide In Me.wav" WAVE
    INDEX 01 00:00:00
  TRACK 16 AUDIO
    INDEX 00 04:25:37
FILE "16 - Get Outta My Way.wav" WAVE
    INDEX 01 00:00:00
  TRACK 17 AUDIO
    INDEX 00 03:38:60
FILE "17 - The Locomotion.wav" WAVE
    INDEX 01 00:00:00
  TRACK 18 AUDIO
    INDEX 00 03:12:55
FILE "18 - Tears On My Pillow.wav" WAVE
    INDEX 01 00:00:00
  TRACK 19 AUDIO
    INDEX 00 02:27:09
FILE "19 - Wow.wav" WAVE
    INDEX 01 00:00:00
  TRACK 20 AUDIO
    INDEX 00 03:12:46
FILE "20 - In My Arms.wav" WAVE
    INDEX 01 00:00:00
  TRACK 21 AUDIO
    INDEX 00 03:31:33
FILE "21 - Never Too Late.wav" WAVE
    INDEX 01 00:00:00



Download

Скачать (бесплатно и на максимальной скорости)!

Как скачивать  ·   Что такое torrent (торрент)  ·   Рейтинг и ограничения

Сайт не распространяет и не хранит электронные версии произведений, а лишь предоставляет доступ к создаваемому пользователями каталогу ссылок на торрент-файлы, которые содержат только списки хеш-сумм


 
Показать сообщения:    
Ответить на тему

Текущее время: 18-Фев 00:18

Часовой пояс: GMT + 3



Вы не можете начинать темы
Вы не можете отвечать на сообщения
Вы не можете редактировать свои сообщения
Вы не можете удалять свои сообщения
Вы не можете голосовать в опросах
Вы не можете прикреплять файлы к сообщениям
Вы не можете скачивать файлы



В начало страницы  •