Loading...
Error
Регистрация  · 
Имя: Пароль:    
 ·  Забыли пароль?
Правила пользования ресурсом

Сегодня идет свободное скачивание без начисления скачанного

(Pop) ABBA - The Name Of The Game - 2002, FLAC (image + .cue), lossless

Ответить на тему
 
Автор Сообщение

sergej644


post 17-Авг-2013 14:36

 


ABBA - The Name Of The Game




Страна: Sweden || Жанр: Pop || Год выпуска: 2002 || Формат: FLAC (image + .cue) || Битрейт аудио: lossless || Продолжительность: 00:59:11


01. Waterloo (02:47)
02. Gimme! Gimme! Gimme! (04:49)
03. Rock Me (03:03)
04. Love Isn? Easy (02:54)
05. Gonna Sing You My Lovesong (03:40)
06. SOS (03:21)
07. When I Kissed The Teacher (03:02)
08. The Name Of The Game (04:54)
09. Hole In Your Soul (03:43)
10. Why Did It Have To Be Me? (03:21)
11. On And On And On (03:40)
12. Lay All Your Love On Me (04:35)
13. The Visitors (05:46)
14. Kisses Of Fire (03:11)
15. When All Is Said And Done (03:16)
16. Ring Ring (03:04)

Код:

Exact Audio Copy V1.0 beta 3 from 29. August 2011

EAC extraction logfile from 25. July 2013, 15:23

ABBA / The Name Of The Game

Used drive  : HL-DT-STDVDRAM GT70N   Adapter: 1  ID: 1

Read mode               : Secure
Utilize accurate stream : Yes
Defeat audio cache      : Yes
Make use of C2 pointers : No

Read offset correction                      : 103
Overread into Lead-In and Lead-Out          : No
Fill up missing offset samples with silence : Yes
Delete leading and trailing silent blocks   : No
Null samples used in CRC calculations       : Yes
Used interface                              : Native Win32 interface for Win NT & 2000

Used output format              : User Defined Encoder
Selected bitrate                : 128 kBit/s
Quality                         : High
Add ID3 tag                     : No
Command line compressor         : C:\Program Files (x86)\Exact Audio Copy\Flac\flac.exe
Additional command line options : -V -8 -T "Date=%year%" -T "Genre=%genre%" %source%

TOC of the extracted CD

     Track |   Start  |  Length  | Start sector | End sector
    ---------------------------------------------------------
        1  |  0:00.00 |  2:47.04 |         0    |    12528
        2  |  2:47.04 |  4:49.28 |     12529    |    34231
        3  |  7:36.32 |  3:03.68 |     34232    |    48024
        4  | 10:40.25 |  2:54.12 |     48025    |    61086
        5  | 13:34.37 |  3:40.10 |     61087    |    77596
        6  | 17:14.47 |  3:21.36 |     77597    |    92707
        7  | 20:36.08 |  3:02.03 |     92708    |   106360
        8  | 23:38.11 |  4:54.08 |    106361    |   128418
        9  | 28:32.19 |  3:43.20 |    128419    |   145163
       10  | 32:15.39 |  3:21.01 |    145164    |   160239
       11  | 35:36.40 |  3:40.26 |    160240    |   176765
       12  | 39:16.66 |  4:35.44 |    176766    |   197434
       13  | 43:52.35 |  5:46.53 |    197435    |   223437
       14  | 49:39.13 |  3:11.42 |    223438    |   237804
       15  | 52:50.55 |  3:16.01 |    237805    |   252505
       16  | 56:06.56 |  3:04.57 |    252506    |   266362

Range status and errors

Selected range

     Filename D:\Extract\ABBA - The Name Of The Game.wav

     Peak level 84.9 %
     Extraction speed 5.0 X
     Range quality 100.0 %
     Test CRC 1AD94BF6
     Copy CRC 1AD94BF6
     Copy OK

No errors occurred

AccurateRip summary

Track  1  accurately ripped (confidence 7)  [2A8B1F12]  (AR v2)
Track  2  accurately ripped (confidence 6)  [15C9A043]  (AR v2)
Track  3  accurately ripped (confidence 6)  [D32A15AA]  (AR v2)
Track  4  accurately ripped (confidence 6)  [5DE33E04]  (AR v2)
Track  5  accurately ripped (confidence 6)  [F0CC3EC8]  (AR v2)
Track  6  accurately ripped (confidence 6)  [3D020A3A]  (AR v2)
Track  7  accurately ripped (confidence 6)  [83B899AE]  (AR v2)
Track  8  accurately ripped (confidence 6)  [FBC22A53]  (AR v2)
Track  9  accurately ripped (confidence 6)  [0048D2F1]  (AR v2)
Track 10  accurately ripped (confidence 6)  [9EFAB5F7]  (AR v2)
Track 11  accurately ripped (confidence 6)  [8D602D5A]  (AR v2)
Track 12  accurately ripped (confidence 6)  [C4C34FA6]  (AR v2)
Track 13  accurately ripped (confidence 6)  [E5720432]  (AR v2)
Track 14  accurately ripped (confidence 5)  [11294714]  (AR v2)
Track 15  accurately ripped (confidence 6)  [86FCD609]  (AR v2)
Track 16  accurately ripped (confidence 6)  [2B13D0B5]  (AR v2)

All tracks accurately ripped

End of status report

Код:

REM GENRE Rock/Pop
REM DATE 2002
REM DISCID E20DDF10
REM COMMENT "ExactAudioCopy v1.0b3"
CATALOG 0044006496924
PERFORMER "ABBA"
TITLE "The Name Of The Game"
FILE "ABBA - The Name Of The Game.flac" WAVE
  TRACK 01 AUDIO
    TITLE "Waterloo"
    PERFORMER "ABBA"
    ISRC SEAYD7415010
    INDEX 01 00:00:00
  TRACK 02 AUDIO
    TITLE "Gimme! Gimme! Gimme!"
    PERFORMER "ABBA"
    ISRC SEAYD7901120
    INDEX 00 02:45:22
    INDEX 01 02:47:04
  TRACK 03 AUDIO
    TITLE "Rock Me"
    PERFORMER "ABBA"
    ISRC SEAYD7501080
    INDEX 00 07:34:50
    INDEX 01 07:36:32
  TRACK 04 AUDIO
    TITLE "Love Isn’t Easy"
    PERFORMER "ABBA"
    ISRC SEAYD7301070
    INDEX 00 10:38:43
    INDEX 01 10:40:25
  TRACK 05 AUDIO
    TITLE "Gonna Sing You My Lovesong"
    PERFORMER "ABBA"
    ISRC SEAYD7401100
    INDEX 00 13:32:55
    INDEX 01 13:34:37
  TRACK 06 AUDIO
    TITLE "SOS"
    PERFORMER "ABBA"
    ISRC SEAYD7501040
    INDEX 00 17:12:65
    INDEX 01 17:14:47
  TRACK 07 AUDIO
    TITLE "When I Kissed The Teacher"
    PERFORMER "ABBA"
    ISRC SEAYD7601010
    INDEX 00 20:34:26
    INDEX 01 20:36:08
  TRACK 08 AUDIO
    TITLE "The Name Of The Game"
    PERFORMER "ABBA"
    ISRC SEAYD7702040
    INDEX 00 23:36:29
    INDEX 01 23:38:11
  TRACK 09 AUDIO
    TITLE "Hole In Your Soul"
    PERFORMER "ABBA"
    ISRC SEAYD7702060
    INDEX 00 28:30:37
    INDEX 01 28:32:19
  TRACK 10 AUDIO
    TITLE "Why Did It Have To Be Me?"
    PERFORMER "ABBA"
    ISRC SEAYD7601080
    INDEX 00 32:13:57
    INDEX 01 32:15:39
  TRACK 11 AUDIO
    TITLE "On And On And On"
    PERFORMER "ABBA"
    ISRC SEAYD8001030
    INDEX 00 35:34:58
    INDEX 01 35:36:40
  TRACK 12 AUDIO
    TITLE "Lay All Your Love On Me"
    PERFORMER "ABBA"
    ISRC SEAYD8001090
    INDEX 00 39:15:09
    INDEX 01 39:16:66
  TRACK 13 AUDIO
    TITLE "The Visitors"
    PERFORMER "ABBA"
    ISRC SEAYD8102010
    INDEX 00 43:50:53
    INDEX 01 43:52:35
  TRACK 14 AUDIO
    TITLE "Kisses Of Fire"
    PERFORMER "ABBA"
    ISRC SEAYD7901100
    INDEX 00 49:37:31
    INDEX 01 49:39:13
  TRACK 15 AUDIO
    TITLE "When All Is Said And Done"
    PERFORMER "ABBA"
    ISRC SEAYD8102030
    INDEX 00 52:48:73
    INDEX 01 52:50:55
  TRACK 16 AUDIO
    TITLE "Ring Ring"
    PERFORMER "ABBA"
    ISRC SEAYD7301010
    INDEX 00 56:04:74
    INDEX 01 56:06:56
ABBA (на русском — АББА) — шведский музыкальный квартет, существовавший в 1972—1982 годах и названный по первым буквам имён исполнителей. Является одним из наиболее успешных коллективов за всю историю популярной музыки и самым успешным из числа созданных в Скандинавии: записи группы по всему миру были проданы тиражом более 350 миллионов экземпляров. Синглы квартета занимали первые места в мировых чартах с середины 1970-х (Waterloo) до начала 1980-х (One of Us), а альбомы-сборники возглавляли мировые хит-парады и в 2000-х. Они остались в плей-листах радиостанций, и их альбомы продолжают продаваться по сей день.

Они были первыми представителями континентальной Европы, кто завоевал первые места в чартах всех ведущих англоговорящих стран (США, Великобритания, Канада, Ирландия, Австралия и Новая Зеландия).


Группа ABBA была включена в Зал славы рок-н-ролла 15 марта 2010 года.
Download

Скачать (бесплатно и на максимальной скорости)!

Как скачивать  ·   Что такое torrent (торрент)  ·   Рейтинг и ограничения

Сайт не распространяет и не хранит электронные версии произведений, а лишь предоставляет доступ к создаваемому пользователями каталогу ссылок на торрент-файлы, которые содержат только списки хеш-сумм


 
Показать сообщения:    
Ответить на тему

Текущее время: 20-Фев 20:35

Часовой пояс: GMT + 3



Вы не можете начинать темы
Вы не можете отвечать на сообщения
Вы не можете редактировать свои сообщения
Вы не можете удалять свои сообщения
Вы не можете голосовать в опросах
Вы не можете прикреплять файлы к сообщениям
Вы не можете скачивать файлы



В начало страницы  •