Loading...
Error
Регистрация  · 
Имя: Пароль:    
 ·  Забыли пароль?
Правила пользования ресурсом

Сегодня идет свободное скачивание без начисления скачанного

(Hard Rock) Kee Marcello (ex-Europe) - Judas Kiss - 2013, FLAC (image + .cue), lossless

Ответить на тему
 
Автор Сообщение

DED


post 06-Авг-2013 07:25

 


Kee Marcello (ex-Europe)- Judas Kiss

Страна: Sweden
Жанр: Hard Rock
Год выпуска: 2013
Формат: FLAC (image + .cue)
Битрейт аудио: lossless
Продолжительность: 00:58:42


01. Zombie (03:58)
02. Dog Eat Dog (04:04)
03. Starless Sky (04:52)
04. I'm Stoned (04:25)
05. Dead End Highway (05:06)
06. Judas Kiss (04:27)
07. And Forever More (feat. Liv Moon) (04:31)
08. Coming Home (04:45)
09. Get On Top (04:40)
10. The Harder They Come (03:11)
11. Dead Give Away (05:08)
12. Love Will Tear Us Apart (04:26)
13. Metal Box (05:04)


Код:

Exact Audio Copy V1.0 beta 3 from 29. August 2011

EAC extraction logfile from 29. May 2013, 4:17

Kee Marcello / Judas Kiss (7H-099-2)

Used drive  : PLEXTOR DVDR   PX-860A   Adapter: 0  ID: 3

Read mode               : Secure
Utilize accurate stream : Yes
Defeat audio cache      : Yes
Make use of C2 pointers : No

Read offset correction                      : 96
Overread into Lead-In and Lead-Out          : No
Fill up missing offset samples with silence : Yes
Delete leading and trailing silent blocks   : No
Null samples used in CRC calculations       : Yes
Used interface                              : Installed external ASPI interface

Used output format              : User Defined Encoder
Selected bitrate                : 1024 kBit/s
Quality                         : High
Add ID3 tag                     : Yes
Command line compressor         : E:\Program Files (x86)\Exact Audio Copy\Flac\flac.exe
Additional command line options : -V -8 -T "Date=%year%" -T "Genre=%genre%" %source%

TOC of the extracted CD

     Track |   Start  |  Length  | Start sector | End sector
    ---------------------------------------------------------
        1  |  0:00.00 |  3:58.47 |         0    |    17896
        2  |  3:58.47 |  4:04.38 |     17897    |    36234
        3  |  8:03.10 |  4:52.09 |     36235    |    58143
        4  | 12:55.19 |  4:25.05 |     58144    |    78023
        5  | 17:20.24 |  5:06.48 |     78024    |   101021
        6  | 22:26.72 |  4:27.04 |    101022    |   121050
        7  | 26:54.01 |  4:31.70 |    121051    |   141445
        8  | 31:25.71 |  4:45.58 |    141446    |   162878
        9  | 36:11.54 |  4:40.64 |    162879    |   183942
       10  | 40:52.43 |  3:11.06 |    183943    |   198273
       11  | 44:03.49 |  5:08.02 |    198274    |   221375
       12  | 49:11.51 |  4:26.42 |    221376    |   241367
       13  | 53:38.18 |  5:04.02 |    241368    |   264169

Range status and errors

Selected range

     Filename D:\MUSIC\Kee Marcello - Judas Kiss (7H-099-2).wav

     Peak level 100.0 %
     Extraction speed 4.8 X
     Range quality 100.0 %
     Test CRC B761D9B3
     Copy CRC B761D9B3
     Copy OK

No errors occurred

AccurateRip summary

Track  1  not present in database
Track  2  not present in database
Track  3  not present in database
Track  4  not present in database
Track  5  not present in database
Track  6  not present in database
Track  7  not present in database
Track  8  not present in database
Track  9  not present in database
Track 10  not present in database
Track 11  not present in database
Track 12  not present in database
Track 13  not present in database

None of the tracks are present in the AccurateRip database

End of status report

Код:

REM GENRE Metal
REM DATE 2013
REM DISCID B20DC20D
REM COMMENT "ExactAudioCopy v1.0b3"
CATALOG 4260158173094
PERFORMER "Kee Marcello"
TITLE "Judas Kiss (7H-099-2)"
FILE "Kee Marcello - Judas Kiss (7H-099-2).flac" WAVE
  TRACK 01 AUDIO
    TITLE "Zombie"
    PERFORMER "Kee Marcello"
    ISRC DEKM61203044
    INDEX 01 00:00:00
  TRACK 02 AUDIO
    TITLE "Dog Eat Dog"
    PERFORMER "Kee Marcello"
    ISRC DEKM61203045
    INDEX 00 03:56:47
    INDEX 01 03:58:47
  TRACK 03 AUDIO
    TITLE "Starless Sky"
    PERFORMER "Kee Marcello"
    ISRC DEKM61203046
    INDEX 00 08:01:10
    INDEX 01 08:03:10
  TRACK 04 AUDIO
    TITLE "I'm Stoned"
    PERFORMER "Kee Marcello"
    ISRC DEKM61203047
    INDEX 00 12:53:19
    INDEX 01 12:55:19
  TRACK 05 AUDIO
    TITLE "Dead End Highway"
    PERFORMER "Kee Marcello"
    ISRC DEKM61203048
    INDEX 00 17:18:24
    INDEX 01 17:20:24
  TRACK 06 AUDIO
    TITLE "Judas Kiss"
    PERFORMER "Kee Marcello"
    ISRC DEKM61203049
    INDEX 00 22:24:72
    INDEX 01 22:26:72
  TRACK 07 AUDIO
    TITLE "And Forever More (feat. Liv Moon)"
    PERFORMER "Kee Marcello"
    ISRC DEKM61203050
    INDEX 00 26:52:01
    INDEX 01 26:54:01
  TRACK 08 AUDIO
    TITLE "Coming Home"
    PERFORMER "Kee Marcello"
    ISRC DEKM61203051
    INDEX 00 31:23:71
    INDEX 01 31:25:71
  TRACK 09 AUDIO
    TITLE "Get On Top"
    PERFORMER "Kee Marcello"
    ISRC DEKM61203052
    INDEX 00 36:09:54
    INDEX 01 36:11:54
  TRACK 10 AUDIO
    TITLE "The Harder They Come"
    PERFORMER "Kee Marcello"
    ISRC DEKM61203053
    INDEX 00 40:50:43
    INDEX 01 40:52:43
  TRACK 11 AUDIO
    TITLE "Dead Give Away"
    PERFORMER "Kee Marcello"
    ISRC DEKM61203054
    INDEX 00 44:01:49
    INDEX 01 44:03:49
  TRACK 12 AUDIO
    TITLE "Love Will Tear Us Apart"
    PERFORMER "Kee Marcello"
    ISRC DEKM61203055
    INDEX 00 49:09:51
    INDEX 01 49:11:51
  TRACK 13 AUDIO
    TITLE "Metal Box"
    PERFORMER "Kee Marcello"
    ISRC DEKM61203056
    INDEX 00 53:36:18
    INDEX 01 53:38:18
Download

Скачать (бесплатно и на максимальной скорости)!

Как скачивать  ·   Что такое torrent (торрент)  ·   Рейтинг и ограничения

Сайт не распространяет и не хранит электронные версии произведений, а лишь предоставляет доступ к создаваемому пользователями каталогу ссылок на торрент-файлы, которые содержат только списки хеш-сумм


 
Показать сообщения:    
Ответить на тему

Текущее время: 23-Сен 06:54

Часовой пояс: GMT + 3



Вы не можете начинать темы
Вы не можете отвечать на сообщения
Вы не можете редактировать свои сообщения
Вы не можете удалять свои сообщения
Вы не можете голосовать в опросах
Вы не можете прикреплять файлы к сообщениям
Вы не можете скачивать файлы



В начало страницы  •