Loading...
Error
Регистрация  · 
Имя: Пароль:    
 ·  Забыли пароль?
Правила пользования ресурсом

Сегодня идет свободное скачивание без начисления скачанного

(Hard Rock) Vixen - Vixen - 1988, FLAC (image + .cue), lossless

Ответить на тему
 
Автор Сообщение

O.S.A.


post 06-Авг-2013 07:17

 


Vixen - Vixen

Страна: USA || Жанр: Hard Rock || Год выпуска: 1988 || Формат: FLAC (image + .cue) || Битрейт аудио: lossless || Продолжительность: 00:43:20


01. Edge Of A Broken Heart (04:24)
02. I Want You To Rock Me (03:30)
03. Cryin' (03:32)
04. American Dream (04:19)
05. Desperate (04:16)
06. One Night Alone (03:50)
07. Hell Raisers (04:27)
08. Love Made Me (03:18)
09. Waiting (03:11)
10. Cruisin' (04:24)
11. Charmed Life (04:05)


Код:

Exact Audio Copy V0.99 prebeta 5 from 4. May 2009

EAC extraction logfile from 14. June 2010, 14:51

Vixen / Vixen

Used drive  : ASUS    DRW-1608P   Adapter: 2  ID: 1

Read mode               : Secure
Utilize accurate stream : Yes
Defeat audio cache      : Yes
Make use of C2 pointers : No

Read offset correction                      : 48
Overread into Lead-In and Lead-Out          : No
Fill up missing offset samples with silence : Yes
Delete leading and trailing silent blocks   : No
Null samples used in CRC calculations       : Yes
Used interface                              : Installed external ASPI interface

Used output format              : User Defined Encoder
Selected bitrate                : 1024 kBit/s
Quality                         : High
Add ID3 tag                     : No
Command line compressor         : C:\Program Files (x86)\Exact Audio Copy\Flac\flac.exe
Additional command line options : -5 -V -T "ARTIST=%a" -T "TITLE=%t" -T "ALBUM=%g" -T "DATE=%y" -T "TRACKNUMBER=%n" -T "GENRE=%m" -T "COMMENT=EAC FLAC -5" %s

TOC of the extracted CD

     Track |   Start  |  Length  | Start sector | End sector
    ---------------------------------------------------------
        1  |  0:00.00 |  4:24.56 |         0    |    19855
        2  |  4:24.56 |  3:30.20 |     19856    |    35625
        3  |  7:55.01 |  3:32.12 |     35626    |    51537
        4  | 11:27.13 |  4:19.35 |     51538    |    70997
        5  | 15:46.48 |  4:16.45 |     70998    |    90242
        6  | 20:03.18 |  3:50.11 |     90243    |   107503
        7  | 23:53.29 |  4:27.29 |    107504    |   127557
        8  | 28:20.58 |  3:18.29 |    127558    |   142436
        9  | 31:39.12 |  3:11.70 |    142437    |   156831
       10  | 34:51.07 |  4:24.00 |    156832    |   176631
       11  | 39:15.07 |  4:05.44 |    176632    |   195050

Range status and errors

Selected range

     Filename F:\Vixen - Vixen - 1988 (Japan)\Vixen - Vixen.wav

     Peak level 97.7 %
     Range quality 100.0 %
     Test CRC A6408E2B
     Copy CRC A6408E2B
     Copy OK

No errors occurred

AccurateRip summary

Track  1  cannot be verified as accurate (confidence 3)  [63BA5EA5], AccurateRip returned [EB01C0A1]
Track  2  cannot be verified as accurate (confidence 3)  [C075934A], AccurateRip returned [62B13BEC]
Track  3  cannot be verified as accurate (confidence 3)  [5D34F763], AccurateRip returned [F822EEE2]
Track  4  cannot be verified as accurate (confidence 2)  [7B6AC66C], AccurateRip returned [50FD935B]
Track  5  cannot be verified as accurate (confidence 3)  [EEF09419], AccurateRip returned [488051C7]
Track  6  cannot be verified as accurate (confidence 2)  [0653AD2F], AccurateRip returned [39C2620D]
Track  7  cannot be verified as accurate (confidence 3)  [A87F1467], AccurateRip returned [B5A628E7]
Track  8  cannot be verified as accurate (confidence 3)  [C5EB687E], AccurateRip returned [8AE8A69E]
Track  9  cannot be verified as accurate (confidence 3)  [BC24F328], AccurateRip returned [46F1047C]
Track 10  cannot be verified as accurate (confidence 3)  [13D2E20B], AccurateRip returned [B83A5839]
Track 11  cannot be verified as accurate (confidence 3)  [529AE64F], AccurateRip returned [6F95E36B]

No tracks could be verified as accurate
You may have a different pressing from the one(s) in the database

End of status report

Код:

REM GENRE "Hard Rock"
REM DATE 1988
REM DISCID 970A280B
REM COMMENT "ExactAudioCopy v0.99pb5"
CATALOG 4988006837072
PERFORMER "Vixen"
TITLE "Vixen"
FILE "Vixen - Vixen.flac" WAVE
  TRACK 01 AUDIO
    TITLE "Edge Of A Broken Heart"
    PERFORMER "Vixen"
    ISRC USEM38800247
    INDEX 01 00:00:00
  TRACK 02 AUDIO
    TITLE "I Want You To Rock Me"
    PERFORMER "Vixen"
    ISRC USEM38800418
    INDEX 00 04:23:35
    INDEX 01 04:24:56
  TRACK 03 AUDIO
    TITLE "Cryin'"
    PERFORMER "Vixen"
    ISRC USEM38800358
    INDEX 00 07:52:74
    INDEX 01 07:55:01
  TRACK 04 AUDIO
    TITLE "American Dream"
    PERFORMER "Vixen"
    ISRC USEM38800419
    INDEX 01 11:27:13
  TRACK 05 AUDIO
    TITLE "Desperate"
    PERFORMER "Vixen"
    ISRC USEM38800416
    INDEX 00 15:45:34
    INDEX 01 15:46:48
  TRACK 06 AUDIO
    TITLE "One Night Alone"
    PERFORMER "Vixen"
    ISRC USEM38800420
    INDEX 00 20:01:05
    INDEX 01 20:03:18
  TRACK 07 AUDIO
    TITLE "Hell Raisers"
    PERFORMER "Vixen"
    ISRC USEM38800421
    INDEX 00 23:52:27
    INDEX 01 23:53:29
  TRACK 08 AUDIO
    TITLE "Love Made Me"
    PERFORMER "Vixen"
    ISRC USEM38800414
    INDEX 00 28:19:55
    INDEX 01 28:20:58
  TRACK 09 AUDIO
    TITLE "Waiting"
    PERFORMER "Vixen"
    ISRC USEM38800417
    INDEX 01 31:39:12
  TRACK 10 AUDIO
    TITLE "Cruisin'"
    PERFORMER "Vixen"
    ISRC USEM38800415
    INDEX 00 34:48:54
    INDEX 01 34:51:07
  TRACK 11 AUDIO
    TITLE "Charmed Life"
    PERFORMER "Vixen"
    ISRC USEM38800413
    INDEX 00 39:12:61
    INDEX 01 39:15:07



Download

Скачать (бесплатно и на максимальной скорости)!

Как скачивать  ·   Что такое torrent (торрент)  ·   Рейтинг и ограничения

Сайт не распространяет и не хранит электронные версии произведений, а лишь предоставляет доступ к создаваемому пользователями каталогу ссылок на торрент-файлы, которые содержат только списки хеш-сумм


 
Показать сообщения:    
Ответить на тему

Текущее время: 16-Авг 16:50

Часовой пояс: GMT + 3



Вы не можете начинать темы
Вы не можете отвечать на сообщения
Вы не можете редактировать свои сообщения
Вы не можете удалять свои сообщения
Вы не можете голосовать в опросах
Вы не можете прикреплять файлы к сообщениям
Вы не можете скачивать файлы



В начало страницы  •