Loading...
Error
Регистрация  · 
Имя: Пароль:    
 ·  Забыли пароль?
Правила пользования ресурсом

Обладатель VIP статуса на 24 часа: nikola120
стань следующим читай правила
Сегодня идет свободное скачивание без начисления скачанного

(Hard Rock / Blues Rock) Gary Moore - 1990 - Still Got the Blues [V2 07777 7 86167 2 6, Canada], FLAC (image+.cue), lossless

Ответить на тему
 
Автор Сообщение

DED


post 03-Авг-2013 17:03

 

Gary Moore
1990 - Still Got the Blues
[V2 07777 7 86167 2 6, Canada]

Жанр: Hard Rock / Blues Rock
Страна исполнителя: Ireland
Страна-производитель диска: Canada
Год выхода альбома / издания диска: 1990 / 1996 (?)
Издатель (лейбл): Virgin
Номер по каталогу: V2 07777 7 86167 2 6

Аудио кодек: FLAC (*.flac)
Тип рипа: image+.cue
Битрейт аудио: lossless
Продолжительность: 00:53:16
01. Moving On (2:40)
02. Oh Pretty Woman (4:25)
03. Walking By My Self (2:56)
04. Still Got The Blues (6:11)
05. Texas Strut (4:52)
06. Too Tired (2:50)
07. King Of The Blues (4:36)
08. As The Years Go Passing By (7:44)
09. Midnight Blues (4:58)
10. That Kind Of Woman (4:30)
11. All Your Love (3:41)
12. Stop Messin' Around (3:53)
[pre]
Exact Audio Copy V1.0 beta 3 from 29. August 2011
EAC extraction logfile from 7. January 2013, 14:10
Gary Moore / Still Got the Blues
Used drive : TSSTcorpCDDVDW TS-H653B Adapter: 0 ID: 0
Read mode : Secure
Utilize accurate stream : Yes
Defeat audio cache : Yes
Make use of C2 pointers : No
Read offset correction : 6
Overread into Lead-In and Lead-Out : No
Fill up missing offset samples with silence : Yes
Delete leading and trailing silent blocks : No
Null samples used in CRC calculations : Yes
Used interface : Native Win32 interface for Win NT & 2000
Used output format : User Defined Encoder
Selected bitrate : 896 kBit/s
Quality : High
Add ID3 tag : No
Command line compressor : C:\Program Files (x86)\Exact Audio Copy\wavpack.exe
Additional command line options : -hm %source% %dest%
TOC of the extracted CD
Track | Start | Length | Start sector | End sector
---------------------------------------------------------
1 | 0:00.00 | 2:39.70 | 0 | 11994
2 | 2:39.70 | 4:25.02 | 11995 | 31871
3 | 7:04.72 | 2:55.65 | 31872 | 45061
4 | 10:00.62 | 6:10.65 | 45062 | 72876
5 | 16:11.52 | 4:51.58 | 72877 | 94759
6 | 21:03.35 | 2:50.20 | 94760 | 107529
7 | 23:53.55 | 4:36.27 | 107530 | 128256
8 | 28:30.07 | 7:44.03 | 128257 | 163059
9 | 36:14.10 | 4:58.37 | 163060 | 185446
10 | 41:12.47 | 4:29.73 | 185447 | 205694
11 | 45:42.45 | 3:41.15 | 205695 | 222284
12 | 49:23.60 | 3:52.40 | 222285 | 239724
Range status and errors
Selected range
Filename G:\NL[ZAM]\Moore\Gary Moore - Still Got the Blues.wav
Peak level 100.0 %
Extraction speed 7.4 X
Range quality 100.0 %
Test CRC 3247B98A
Copy CRC 3247B98A
Copy OK
No errors occurred
AccurateRip summary
Track 1 accurately ripped (confidence 4) [B280BA7D] (AR v2)
Track 2 accurately ripped (confidence 4) [83BE85C3] (AR v2)
Track 3 accurately ripped (confidence 4) [CC7DCD3C] (AR v2)
Track 4 accurately ripped (confidence 4) [D0794D86] (AR v2)
Track 5 accurately ripped (confidence 4) [4EB1BEA9] (AR v2)
Track 6 accurately ripped (confidence 4) [9F4E3E53] (AR v2)
Track 7 accurately ripped (confidence 4) [3C1487AA] (AR v2)
Track 8 accurately ripped (confidence 4) [1E53862D] (AR v2)
Track 9 accurately ripped (confidence 4) [39B6C27D] (AR v2)
Track 10 accurately ripped (confidence 4) [2F002C3B] (AR v2)
Track 11 accurately ripped (confidence 4) [D24523CB] (AR v2)
Track 12 accurately ripped (confidence 4) [04E44D4A] (AR v2)
All tracks accurately ripped
End of status report
---- CUETools DB Plugin V2.1.3
[CTDB TOCID: CLC4BLIni6L1.E0ZQ_D1tJvksR8-] found, Submit result: CLC4BLIni6L1.E0ZQ_D1tJvksR8- has been confirmed
[06ac8e01] (105/106) Accurately ripped
[9946e886] (001/106) No match
[/pre]
[pre]
REM GENRE "Blues Rock"
REM DATE 1990
REM DISCID 9F0C7C0C
REM COMMENT "ExactAudioCopy v1.0b3"
PERFORMER "Gary Moore"
TITLE "Still Got the Blues"
FILE "Gary Moore - Still Got the Blues (1990).flac" WAVE
TRACK 01 AUDIO
TITLE "Moving On"
PERFORMER "Gary Moore"
INDEX 01 00:00:00
TRACK 02 AUDIO
TITLE "Oh Pretty Woman"
PERFORMER "Gary Moore"
INDEX 00 02:38:67
INDEX 01 02:39:70
TRACK 03 AUDIO
TITLE "Walking By My Self"
PERFORMER "Gary Moore"
INDEX 00 07:04:02
INDEX 01 07:04:72
TRACK 04 AUDIO
TITLE "Still Got The Blues"
PERFORMER "Gary Moore"
INDEX 00 09:59:72
INDEX 01 10:00:62
TRACK 05 AUDIO
TITLE "Texas Strut"
PERFORMER "Gary Moore"
INDEX 00 16:09:45
INDEX 01 16:11:52
TRACK 06 AUDIO
TITLE "Too Tired"
PERFORMER "Gary Moore"
INDEX 00 21:01:52
INDEX 01 21:03:35
TRACK 07 AUDIO
TITLE "King Of The Blues"
PERFORMER "Gary Moore"
INDEX 00 23:53:05
INDEX 01 23:53:55
TRACK 08 AUDIO
TITLE "As The Years Go Passing By"
PERFORMER "Gary Moore"
INDEX 00 28:28:05
INDEX 01 28:30:07
TRACK 09 AUDIO
TITLE "Midnight Blues"
PERFORMER "Gary Moore"
INDEX 00 36:12:60
INDEX 01 36:14:10
TRACK 10 AUDIO
TITLE "That Kind Of Woman"
PERFORMER "Gary Moore"
INDEX 00 41:11:42
INDEX 01 41:12:47
TRACK 11 AUDIO
TITLE "All Your Love"
PERFORMER "Gary Moore"
INDEX 00 45:40:70
INDEX 01 45:42:45
TRACK 12 AUDIO
TITLE "Stop Messin' Around"
PERFORMER "Gary Moore"
INDEX 00 49:22:40
INDEX 01 49:23:60
[/pre]
[pre]
[CUETools log; Date: 18.01.2013 15:13:44; Version: 2.1.4]
[CTDB TOCID: CLC4BLIni6L1.E0ZQ_D1tJvksR8-] found.
Track | CTDB Status
1 | (33/33) Accurately ripped
2 | (33/33) Accurately ripped
3 | (31/33) Accurately ripped, or (2/33) differs in 1356 samples @02:30:66-02:30:67
4 | (33/33) Accurately ripped
5 | (33/33) Accurately ripped
6 | (33/33) Accurately ripped
7 | (33/33) Accurately ripped
8 | (33/33) Accurately ripped
9 | (33/33) Accurately ripped
10 | (33/33) Accurately ripped
11 | (33/33) Accurately ripped
12 | (32/33) Accurately ripped
[AccurateRip ID: 001704d5-00db6c22-9f0c7c0c] found.
Track [ CRC | V2 ] Status
01 [c69dce31|b280ba7d] (020+004/121) Accurately ripped
02 [4ca23be5|83be85c3] (020+004/123) Accurately ripped
03 [d8b7faed|cc7dcd3c] (020+004/122) Accurately ripped
04 [88591915|d0794d86] (020+004/122) Accurately ripped
05 [9d182570|4eb1bea9] (020+004/121) Accurately ripped
06 [2544690e|9f4e3e53] (020+004/123) Accurately ripped
07 [88944eaa|3c1487aa] (020+004/121) Accurately ripped
08 [c78f5c0c|1e53862d] (019+004/123) Accurately ripped
09 [b2ff6417|39b6c27d] (019+004/121) Accurately ripped
10 [cc4dc293|2f002c3b] (018+004/118) Accurately ripped
11 [55f436c6|d24523cb] (020+004/120) Accurately ripped
12 [f98f8b33|04e44d4a] (019+004/117) Accurately ripped
Offsetted by -669:
01 [7e6ac5d1] (004/121) Accurately ripped
02 [c8b57676] (004/123) Accurately ripped
03 [462e1bd1] (004/122) Accurately ripped
04 [ca0f3a17] (004/122) Accurately ripped
05 [1081851b] (004/121) Accurately ripped
06 [2be2a7ff] (004/123) Accurately ripped
07 [a8457381] (004/121) Accurately ripped
08 [b9ce80c2] (005/123) Accurately ripped
09 [e4c8b735] (004/121) Accurately ripped
10 [32855cd8] (004/118) Accurately ripped
11 [bf60b8fa] (004/120) Accurately ripped
12 [b348abe2] (004/117) Accurately ripped
Offsetted by 1053:
01 [44e2a691] (003/121) Accurately ripped
02 [490db9d4] (004/123) Accurately ripped
03 [eafe0c09] (004/122) Accurately ripped
04 [ee685913] (004/122) Accurately ripped
05 [76ef6b45] (004/121) Accurately ripped
06 [8351129d] (004/123) Accurately ripped
07 [9821a553] (004/121) Accurately ripped
08 [491e3256] (004/123) Accurately ripped
09 [8838bff9] (004/121) Accurately ripped
10 [a88b7ace] (004/118) Accurately ripped
11 [7ea78e92] (004/120) Accurately ripped
12 [b3f15204] (004/117) Accurately ripped
Offsetted by 1274:
01 [ce00e6f1] (015/121) Accurately ripped
02 [c066a803] (015/123) Accurately ripped
03 [3dd70625] (015/122) Accurately ripped
04 [be4bf191] (015/122) Accurately ripped
05 [7eba9fda] (015/121) Accurately ripped
06 [8740c46c] (015/123) Accurately ripped
07 [c15245bc] (014/121) Accurately ripped
08 [7a6ebe20] (015/123) Accurately ripped
09 [78ec4b5b] (015/121) Accurately ripped
10 [74cb0049] (015/118) Accurately ripped
11 [c015e35e] (015/120) Accurately ripped
12 [72c37895] (015/117) Accurately ripped
Offsetted by 1366:
01 [d2f52b71] (011/121) Accurately ripped
02 [35450437] (011/123) Accurately ripped
03 [21c6c775] (011/122) Accurately ripped
04 [73d33b79] (011/122) Accurately ripped
05 [2e921cd6] (010/121) Accurately ripped
06 [175f0c20] (011/123) Accurately ripped
07 [74a3e8a8] (011/121) Accurately ripped
08 [70d81798] (011/123) Accurately ripped
09 [3d44eff3] (011/121) Accurately ripped
10 [4cb71c0d] (011/118) Accurately ripped
11 [586d84ee] (011/120) Accurately ripped
12 [5e949561] (011/117) Accurately ripped
Offsetted by 1520:
01 [7ca45031] (005/121) Accurately ripped
02 [8997d635] (005/123) Accurately ripped
03 [e7ab962d] (005/122) Accurately ripped
04 [55c663b5] (006/122) Accurately ripped
05 [443809e0] (005/121) Accurately ripped
06 [93be415e] (005/123) Accurately ripped
07 [e3964cda] (005/121) Accurately ripped
08 [fc9eb2ec] (005/123) Accurately ripped
09 [d96a0377] (005/121) Accurately ripped
10 [f35e2923] (005/118) Accurately ripped
11 [6db24b06] (005/120) Accurately ripped
12 [0524b4e3] (004/117) Accurately ripped
Offsetted by 1568:
01 [e3668a31] (009/121) Accurately ripped
02 [78a7ad45] (009/123) Accurately ripped
03 [b7a31c6d] (009/122) Accurately ripped
04 [cabf0fd5] (008/122) Accurately ripped
05 [ede01e90] (009/121) Accurately ripped
06 [00539e6e] (009/123) Accurately ripped
07 [097e1c4a] (009/121) Accurately ripped
08 [cb18724c] (009/123) Accurately ripped
09 [ba4a5957] (009/121) Accurately ripped
10 [9bacd373] (008/118) Accurately ripped
11 [fff64646] (009/120) Accurately ripped
12 [53a811d3] (009/117) Accurately ripped
Offsetted by 2203:
01 [02cffed1] (012/121) Accurately ripped
02 [fde93a5e] (012/123) Accurately ripped
03 [8c32fc71] (012/122) Accurately ripped
04 [cb8374e7] (012/122) Accurately ripped
05 [8cf50593] (012/121) Accurately ripped
06 [0ccb92e7] (012/123) Accurately ripped
07 [599e19d9] (012/121) Accurately ripped
08 [d14310b2] (012/123) Accurately ripped
09 [9e8cc965] (012/121) Accurately ripped
10 [b392d5e0] (012/118) Accurately ripped
11 [eeeef21a] (012/120) Accurately ripped
12 [b7a739fa] (012/117) Accurately ripped
Offsetted by 2215:
01 [5c808d51] (006/121) Accurately ripped
02 [39ad3022] (006/123) Accurately ripped
03 [c030de01] (006/122) Accurately ripped
04 [68c19fef] (005/122) Accurately ripped
05 [775f0abf] (006/121) Accurately ripped
06 [e7f0ea2b] (006/123) Accurately ripped
07 [23180db5] (005/121) Accurately ripped
08 [c4e1808a] (006/123) Accurately ripped
09 [96c4dedd] (006/121) Accurately ripped
10 [1da68074] (006/118) Accurately ripped
11 [937ff0ea] (006/120) Accurately ripped
12 [cb481136] (005/117) Accurately ripped
Offsetted by 2340:
01 [181a59b1] (008/121) Accurately ripped
02 [d2e67031] (008/123) Accurately ripped
03 [731acb9d] (008/122) Accurately ripped
04 [4eb3e02d] (008/122) Accurately ripped
05 [2bda15f4] (008/121) Accurately ripped
06 [12b5e1da] (008/123) Accurately ripped
07 [00790f3e] (008/121) Accurately ripped
08 [593e8d94] (008/123) Accurately ripped
09 [c5b7be7f] (008/121) Accurately ripped
10 [9948b14f] (008/118) Accurately ripped
11 [b0664f36] (008/120) Accurately ripped
12 [ed137de7] (008/117) Accurately ripped
Offsetted by 2490:
01 [f9394ef1] (016/121) Accurately ripped
02 [bdf7f043] (017/123) Accurately ripped
03 [7d004f25] (016/122) Accurately ripped
04 [fc3cfa11] (017/122) Accurately ripped
05 [9e07569a] (016/121) Accurately ripped
06 [4608a4ac] (017/123) Accurately ripped
07 [d6ed777c] (017/121) Accurately ripped
08 [3e7b03a0] (017/123) Accurately ripped
09 [6474cadb] (016/121) Accurately ripped
10 [c73e8589] (015/118) Accurately ripped
11 [397ac05e] (014/120) Accurately ripped
12 [e26e0055] (014/117) Accurately ripped
Track Peak [ CRC32 ] [W/O NULL] [ LOG ]
-- 100,0 [3247B98A] [111548F1] CRC32
01 79,1 [E2B4B634] [A8DB9668]
02 87,5 [B9ED425C] [1A32CD74]
03 74,9 [AA51270C] [DC07C954]
04 70,2 [DC1A5784] [162A15A6]
05 85,3 [B84F8183] [9BD3D595]
06 71,0 [A15179FA] [AC85DFFF]
07 74,5 [76D25A0C] [E1DF86D8]
08 66,7 [E104FAC9] [DC0FFE21]
09 70,5 [B15146AE] [D184FCD5]
10 74,0 [D8A0C7E4] [1215570D]
11 100,0 [B46B7668] [A0E8FABE]
12 98,1 [7B25D890] [02E7237A]
[/pre]
[pre]
foobar2000 1.1.1 / Dynamic Range Meter 1.1.1
log date: 2013-01-18 15:11:24
--------------------------------------------------------------------------------
Analyzed: Gary Moore / Still Got the Blues
--------------------------------------------------------------------------------
DR Peak RMS Duration Track
--------------------------------------------------------------------------------
DR14 -2.03 dB -17.57 dB 2:40 01-Moving On
DR13 -1.15 dB -16.32 dB 4:25 02-Oh Pretty Woman
DR13 -2.50 dB -17.43 dB 2:56 03-Walking By My Self
DR13 -3.06 dB -17.94 dB 6:11 04-Still Got The Blues
DR13 -1.37 dB -16.75 dB 4:52 05-Texas Strut
DR13 -2.96 dB -17.91 dB 2:50 06-Too Tired
DR13 -2.55 dB -17.93 dB 4:36 07-King Of The Blues
DR14 -3.51 dB -21.04 dB 7:44 08-As The Years Go Passing By
DR13 -3.03 dB -18.31 dB 4:58 09-Midnight Blues
DR13 -2.61 dB -17.54 dB 4:30 10-That Kind Of Woman
DR12 0.00 dB -14.68 dB 3:41 11-All Your Love
DR15 -0.16 dB -18.33 dB 3:53 12-Stop Messin' Around
--------------------------------------------------------------------------------
Number of tracks: 12
Official DR value: DR13
Samplerate: 44100 Hz
Channels: 2
Bits per sample: 16
Bitrate: 799 kbps
Codec: FLAC
[/pre]

• Gary Moore - lead vocals, lead and rhythm guitars
• Don Airey - keyboards
• Stuart Brooks - trumpet
• Albert Collins - guitar
• Bob Daisley - bass guitar
• Raul d'Oliveira - trumpet
• Brian Downey - drums
• Martin Drover - trumpet
• Andy Hamilton - saxophone
• George Harrison - guitar, vocals
• Nicky Hopkins - keyboards
• Albert King - guitar
• Frank Mead - saxophone
• Nick Payn - saxophone
• Nick Pentelow - saxophone
• Andy Pyle - bass guitar
• Graham Walker - drums
• Mick Weaver - piano
• Gavyn Wright - strings
Download

Скачать (бесплатно и на максимальной скорости)!

Как скачивать  ·   Что такое torrent (торрент)  ·   Рейтинг и ограничения

Сайт не распространяет и не хранит электронные версии произведений, а лишь предоставляет доступ к создаваемому пользователями каталогу ссылок на торрент-файлы, которые содержат только списки хеш-сумм


 
Показать сообщения:    
Ответить на тему

Текущее время: 22-Сен 23:18

Часовой пояс: GMT + 3



Вы не можете начинать темы
Вы не можете отвечать на сообщения
Вы не можете редактировать свои сообщения
Вы не можете удалять свои сообщения
Вы не можете голосовать в опросах
Вы не можете прикреплять файлы к сообщениям
Вы не можете скачивать файлы



В начало страницы  •