Loading...
Error
Регистрация  · 
Имя: Пароль:    
 ·  Забыли пароль?
Правила пользования ресурсом

Обладатель VIP статуса на 24 часа: nikola120
стань следующим читай правила
Сегодня идет свободное скачивание без начисления скачанного

(Hard Rock) James Christian - Lay It All On Me - 2013, FLAC (image + .cue), lossless

Ответить на тему
 
Автор Сообщение

DED


post 03-Авг-2013 15:57

 


James Christian - Lay It All On Me

Страна: USA
Жанр: Hard Rock
Год выпуска: 2013
Издатель (лейбл): Frontiers Rec.
Номер по каталогу: FR CD 609
Формат: FLAC (image + .cue)
Битрейт аудио: lossless
Продолжительность: 00:45:05



01. Lay It All On Me (04:49)
02. Sacred Heart (03:39)
03. Day In The Sun (03:34)
04. Believe In Me (03:31)
05. You're So Bad (04:05)
06. Don't Come Near Me (04:40)
07. Let It Shine (04:22)
08. She's All The Rage (04:05)
09. Sincerely Yours (03:55)
10. Another Shot In The Dark (03:39)
11. Welcome To Your Future (04:42)


Код:

Exact Audio Copy V1.0 beta 3 from 29. August 2011

EAC extraction logfile from 20. July 2013, 22:23

James Christian / Lay It All On Me (FRCD609)

Used drive  : MATSHITABD-CMB UJ242AS   Adapter: 0  ID: 1

Read mode               : Secure
Utilize accurate stream : Yes
Defeat audio cache      : Yes
Make use of C2 pointers : No

Read offset correction                      : 103
Overread into Lead-In and Lead-Out          : No
Fill up missing offset samples with silence : Yes
Delete leading and trailing silent blocks   : No
Null samples used in CRC calculations       : Yes
Used interface                              : Installed external ASPI interface

Used output format              : User Defined Encoder
Selected bitrate                : 1024 kBit/s
Quality                         : High
Add ID3 tag                     : Yes
Command line compressor         : C:\Program Files (x86)\Exact Audio Copy\Flac\flac.exe
Additional command line options : -V -8 -T "Date=%year%" -T "Genre=%genre%" %source%

TOC of the extracted CD

     Track |   Start  |  Length  | Start sector | End sector
    ---------------------------------------------------------
        1  |  0:00.00 |  4:49.03 |         0    |    21677
        2  |  4:49.03 |  3:39.04 |     21678    |    38106
        3  |  8:28.07 |  3:34.03 |     38107    |    54159
        4  | 12:02.10 |  3:31.42 |     54160    |    70026
        5  | 15:33.52 |  4:05.20 |     70027    |    88421
        6  | 19:38.72 |  4:40.37 |     88422    |   109458
        7  | 24:19.34 |  4:22.69 |    109459    |   129177
        8  | 28:42.28 |  4:05.69 |    129178    |   147621
        9  | 32:48.22 |  3:55.74 |    147622    |   165320
       10  | 36:44.21 |  3:39.35 |    165321    |   181780
       11  | 40:23.56 |  4:42.13 |    181781    |   202943

Range status and errors

Selected range

     Filename C:\EACrip\James Christian - Lay It All On Me (FRCD609).wav

     Peak level 97.6 %
     Extraction speed 4.0 X
     Range quality 100.0 %
     Test CRC 9D40CE34
     Copy CRC 9D40CE34
     Copy OK

No errors occurred

AccurateRip summary

Track  1  not present in database
Track  2  not present in database
Track  3  not present in database
Track  4  not present in database
Track  5  not present in database
Track  6  not present in database
Track  7  not present in database
Track  8  not present in database
Track  9  not present in database
Track 10  not present in database
Track 11  not present in database

None of the tracks are present in the AccurateRip database

End of status report

Код:

REM GENRE Rock
REM DATE 2013
REM DISCID 7E0A910B
REM COMMENT "ExactAudioCopy v1.0b3"
PERFORMER "James Christian"
TITLE "Lay It All On Me (FRCD609)"
FILE "James Christian - Lay It All On Me (FRCD609).flac" WAVE
  TRACK 01 AUDIO
    TITLE "Lay It All On Me"
    PERFORMER "James Christian"
    ISRC ITG271300050
    INDEX 01 00:00:00
  TRACK 02 AUDIO
    TITLE "Sacred Heart"
    PERFORMER "James Christian"
    ISRC ITG271300051
    INDEX 01 04:49:03
  TRACK 03 AUDIO
    TITLE "Day In The Sun"
    PERFORMER "James Christian"
    ISRC ITG271300052
    INDEX 01 08:28:07
  TRACK 04 AUDIO
    TITLE "Believe In Me"
    PERFORMER "James Christian"
    ISRC ITG271300053
    INDEX 01 12:02:10
  TRACK 05 AUDIO
    TITLE "You're So Bad"
    PERFORMER "James Christian"
    ISRC ITG271300054
    INDEX 01 15:33:52
  TRACK 06 AUDIO
    TITLE "Don't Come Near Me"
    PERFORMER "James Christian"
    ISRC ITG271300055
    INDEX 01 19:38:72
  TRACK 07 AUDIO
    TITLE "Let It Shine"
    PERFORMER "James Christian"
    ISRC ITG271300056
    INDEX 01 24:19:34
  TRACK 08 AUDIO
    TITLE "She's All The Rage"
    PERFORMER "James Christian"
    ISRC ITG271300057
    INDEX 01 28:42:28
  TRACK 09 AUDIO
    TITLE "Sincerely Yours"
    PERFORMER "James Christian"
    ISRC ITG271300058
    INDEX 01 32:48:22
  TRACK 10 AUDIO
    TITLE "Another Shot In The Dark"
    PERFORMER "James Christian"
    ISRC ITG271300059
    INDEX 01 36:44:21
  TRACK 11 AUDIO
    TITLE "Welcome To Your Future"
    PERFORMER "James Christian"
    ISRC ITG271300060
    INDEX 01 40:23:56
Download

Скачать (бесплатно и на максимальной скорости)!

Как скачивать  ·   Что такое torrent (торрент)  ·   Рейтинг и ограничения

Сайт не распространяет и не хранит электронные версии произведений, а лишь предоставляет доступ к создаваемому пользователями каталогу ссылок на торрент-файлы, которые содержат только списки хеш-сумм


 
Показать сообщения:    
Ответить на тему

Текущее время: 30-Окт 04:47

Часовой пояс: GMT + 3



Вы не можете начинать темы
Вы не можете отвечать на сообщения
Вы не можете редактировать свои сообщения
Вы не можете удалять свои сообщения
Вы не можете голосовать в опросах
Вы не можете прикреплять файлы к сообщениям
Вы не можете скачивать файлы



В начало страницы  •