Loading...
Error
Регистрация  · 
Имя: Пароль:    
 ·  Забыли пароль?
Правила пользования ресурсом

Обладатель VIP статуса на 24 часа: Ш.Е.Ф.Ф.
стань следующим читай правила
Сегодня идет свободное скачивание без начисления скачанного

(Сов. эстрада, саундтрек) VA - А. Зацепин - Золотая Коллекция (3CD) - 2003, MP3, 320 kbps

Ответить на тему
 
Автор Сообщение

O.S.A.


post 03-Авг-2013 15:35

 


Various Artists — А. Зацепин - Золотая Коллекция (3CD)

Страна: Россия
Жанр: Советская эстрада
Год выпуска: 2003
Формат: MP3
Битрейт аудио: 320 kbps
Продолжительность: 03:30:54


01. Этот мир придуман не нами (02:38)
02. Всё было (03:19)
03. Помоги мне (04:37)
04. Одиссей (02:38)
05. Ну чем она лучше (05:14)
06. Кап-кап-кап (02:26)
07. Песня про зайцев (03:08)
08. Купидон (02:13)
09. Волшебник-недоучка (03:19)
10. Погоня в Васюках (04:48)
11. Любовь нас выбирает (04:43)
12. Ты не стал судьбой (04:57)
13. Небо моё (04:43)
14. А любовь одна (04:00)
15. Полосатая жизнь (02:46)
16. Рынок (03:17)
17. У моря (05:31)
18. За удачей спешим (04:00)
19. Звездный мост (03:58)
20. Эллочка-людоедка (01:29)

Исполнители песен:

Код:

Общее
Полное имя                               : D:\torrent files\Aleasandr Zatcepin - Gold Collection(3СD) - 2003 MP3\CD-1 Этот мир придуман не нами\(01) [Александр Зацепин] Этот мир придуман не нами.mp3
Формат                                   : MPEG Audio
Размер файла                             : 6,11 Мбайт
Продолжительность                        : 2 м. 38 с.
Режим общего битрейта                    : Постоянный
Общий поток                              : 320 Кбит/сек
Альбом                                   : Золотая Коллекция
Часть/Положение                          : 1
Трек                                     : Этот мир придуман не нами
Трек/Положение                           : 01
Исполнитель                              : Александр Зацепин
Жанр                                     :
Библиотека кодирования                   : LAME3.93
Обложка                                  : Yes
Тип обложки                              : Cover (front)
MIME-тип обложки                         : image/jpg
Примечание                               : rip by sergej644

Аудио
Формат                                   : MPEG Audio
Версия формата                           : Version 1
Профиль формата                          : Layer 3
Режим                                    : Joint stereo
Расширение режима                        : MS Stereo
Продолжительность                        : 2 м. 39 с.
Вид битрейта                             : Постоянный
Битрейт                                  : 320 Кбит/сек
Каналы                                   : 2 канала
Частота                                  : 44,1 КГц
Метод сжатия                             : С потерями
Размер потока                            : 6,06 Мбайт (99%)
Библиотека кодирования                   : LAME3.93
Настройки программы                      : -m j -V 4 -q 0
01. Куда уходит детство (04:42)
02. Песенка ни о чём (02:51)
03. Да... (03:52)
04. Было и прошло (03:22)
05. Он пришёл - этот добрый день (04:36)
06. Гололед (03:25)
07. Если б я был султан (02:41)
08. После экзаменов (01:32)
09. До свидания, лето (04:40)
10. Лунная вода (05:25)
11. Завывать нелегко (04:00)
12. На Брайтон-Бич (02:54)
13. Теряют люди друг друга (03:05)
14. Любовь одна виновата (03:19)
15. Берег моря (02:52)
16. Губит людей не пиво (02:25)
17. Танцплощадка (02:51)
18. Бармолей (04:07)
19. Ты поверь, поверь (04:14)
20. Остров невезения (03:59)

Исполнители песен:

Код:

Общее
Полное имя                               : D:\torrent files\Aleasandr Zatcepin - Gold Collection(3СD) - 2003 MP3\CD-2 Куда уходит детство\(01) [Куда уходит детство] Куда уходит детство.mp3
Формат                                   : MPEG Audio
Размер файла                             : 10,8 Мбайт
Продолжительность                        : 4 м. 42 с.
Режим общего битрейта                    : Постоянный
Общий поток                              : 320 Кбит/сек
Альбом                                   : Александр Зацепин Золотая коллекция CD-2 Куда уходит детство
Трек                                     : Куда уходит детство
Трек/Положение                           : 01
Исполнитель                              : Куда уходит детство
Жанр                                     :
Библиотека кодирования                   : LAME3.93
Обложка                                  : Yes
Тип обложки                              : Cover (front)
MIME-тип обложки                         : image/jpg
Примечание                               : rip by sergej644

Аудио
Формат                                   : MPEG Audio
Версия формата                           : Version 1
Профиль формата                          : Layer 3
Режим                                    : Joint stereo
Продолжительность                        : 4 м. 42 с.
Вид битрейта                             : Постоянный
Битрейт                                  : 320 Кбит/сек
Каналы                                   : 2 канала
Частота                                  : 44,1 КГц
Метод сжатия                             : С потерями
Размер потока                            : 10,8 Мбайт (100%)
Библиотека кодирования                   : LAME3.93
Настройки программы                      : -m j -V 4 -q 0
01. Увертюра (01:01)
02. Есть только миг (03:41)
03. Что было однажды (03:36)
04. Знаю, что ты придешь (04:16)
05. Верьте не верьте (02:51)
06. Я буду ждать тебя (03:26)
07. Марш троицы (01:58)
08. Уходишь ты (04:47)
09. Остров невезения (02:11)
10. Найди себе друга (02:36)
11. Мир без любимого (04:13)
12. Я хочу, чтоб ты стала моей (02:38)
13. Песенка о медведях (02:58)
14. Песенка про меня (03:41)
15. Мираж (05:06)
16. Ну и пусть (03:08)
17. Молодость (03:25)
18. Разговор со счастьем (02:38)
19. Ищу тебя (05:15)
20. Лето прошло (босса-нова) (02:23)

Исполнители песен:

Код:

Общее
Полное имя                               : D:\torrent files\Aleasandr Zatcepin - Gold Collection(3СD) - 2003 MP3\CD-3 Разговор со счастьем\(02) [Есть только миг] Есть только миг.mp3
Формат                                   : MPEG Audio
Размер файла                             : 8,50 Мбайт
Продолжительность                        : 3 м. 41 с.
Режим общего битрейта                    : Постоянный
Общий поток                              : 320 Кбит/сек
Альбом                                   : Александр Зацепин Золотая коллекция 3 Разговор со счастьем
Трек                                     : Есть только миг
Трек/Положение                           : 02
Исполнитель                              : Есть только миг
Жанр                                     :
Библиотека кодирования                   : LAME3.93
Обложка                                  : Yes
Тип обложки                              : Cover (front)
MIME-тип обложки                         : image/jpg
Примечание                               : rip by sergej644

Аудио
Формат                                   : MPEG Audio
Версия формата                           : Version 1
Профиль формата                          : Layer 3
Режим                                    : Joint stereo
Расширение режима                        : MS Stereo
Продолжительность                        : 3 м. 41 с.
Вид битрейта                             : Постоянный
Битрейт                                  : 320 Кбит/сек
Каналы                                   : 2 канала
Частота                                  : 44,1 КГц
Метод сжатия                             : С потерями
Размер потока                            : 8,46 Мбайт (99%)
Библиотека кодирования                   : LAME3.93
Настройки программы                      : -m j -V 4 -q 0
Download

Скачать (бесплатно и на максимальной скорости)!

Как скачивать  ·   Что такое torrent (торрент)  ·   Рейтинг и ограничения

Сайт не распространяет и не хранит электронные версии произведений, а лишь предоставляет доступ к создаваемому пользователями каталогу ссылок на торрент-файлы, которые содержат только списки хеш-сумм


 
Показать сообщения:    
Ответить на тему

Текущее время: 15-Ноя 00:54

Часовой пояс: GMT + 3



Вы не можете начинать темы
Вы не можете отвечать на сообщения
Вы не можете редактировать свои сообщения
Вы не можете удалять свои сообщения
Вы не можете голосовать в опросах
Вы не можете прикреплять файлы к сообщениям
Вы не можете скачивать файлы



В начало страницы  •