Loading...
Error
Регистрация  · 
Имя: Пароль:    
 ·  Забыли пароль?
Правила пользования ресурсом

Сегодня идет свободное скачивание без начисления скачанного

(Hard Rock) The Deep End - Cop This - 2013, FLAC (image + .cue), lossless

Ответить на тему
 
Автор Сообщение

DED


post 02-Авг-2013 15:14

 


The Deep End - Cop This

Страна: Australia
Жанр: Hard Rock
Год выпуска: 2013
Формат: FLAC (image + .cue)
Битрейт аудио: lossless
Продолжительность: 00:38:40


01. Bigger. Better. Badder (04:01)
02. Get On It (03:11)
03. No Time To Rest (03:09)
04. Knife Fight (02:45)
05. Cheap Night Out (04:24)
06. Tatoos (04:00)
07. Midnight Sun (04:46)
08. Shit Talker (03:04)
09. Trixxxy's Jam (05:25)
10. Run With It (03:51)


Код:

Exact Audio Copy V1.0 beta 3 from 29. August 2011

EAC extraction logfile from 4. July 2013, 17:43

The Deep End / Cop This

Used drive  : SlimtypeDVD A  DS8A5SH   Adapter: 0  ID: 1

Read mode               : Secure
Utilize accurate stream : Yes
Defeat audio cache      : Yes
Make use of C2 pointers : No

Read offset correction                      : 6
Overread into Lead-In and Lead-Out          : No
Fill up missing offset samples with silence : Yes
Delete leading and trailing silent blocks   : No
Null samples used in CRC calculations       : Yes
Used interface                              : Native Win32 interface for Win NT & 2000

Used output format              : User Defined Encoder
Selected bitrate                : 320 kBit/s
Quality                         : High
Add ID3 tag                     : No
Command line compressor         : C:\Program Files (x86)\Exact Audio Copy\Flac\flac.exe
Additional command line options : -V -8 -T "Date=%year%" -T "Genre=%genre%" %source%

TOC of the extracted CD

     Track |   Start  |  Length  | Start sector | End sector
    ---------------------------------------------------------
        1  |  0:00.00 |  4:01.27 |         0    |    18101
        2  |  4:01.27 |  3:11.16 |     18102    |    32442
        3  |  7:12.43 |  3:09.38 |     32443    |    46655
        4  | 10:22.06 |  2:45.32 |     46656    |    59062
        5  | 13:07.38 |  4:24.39 |     59063    |    78901
        6  | 17:32.02 |  4:00.71 |     78902    |    96972
        7  | 21:32.73 |  4:46.51 |     96973    |   118473
        8  | 26:19.49 |  3:04.25 |    118474    |   132298
        9  | 29:23.74 |  5:25.21 |    132299    |   156694
       10  | 34:49.20 |  3:51.18 |    156695    |   174037

Range status and errors

Selected range

     Filename D:\My Music\The Deep End - 2013 Cop This\The Deep End - Cop This.wav

     Peak level 98.8 %
     Extraction speed 4.2 X
     Range quality 100.0 %
     Test CRC 30B8ED59
     Copy CRC 30B8ED59
     Copy OK

No errors occurred

AccurateRip summary

Track  1  not present in database
Track  2  not present in database
Track  3  not present in database
Track  4  not present in database
Track  5  not present in database
Track  6  not present in database
Track  7  not present in database
Track  8  not present in database
Track  9  not present in database
Track 10  not present in database

None of the tracks are present in the AccurateRip database

End of status report

Код:

REM GENRE "Hard Rock"
REM DATE 2013
REM DISCID 8209100A
REM COMMENT "ExactAudioCopy v1.0b3"
PERFORMER "The Deep End"
TITLE "Cop This"
FILE "The Deep End - Cop This.flac" WAVE
  TRACK 01 AUDIO
    TITLE "Bigger. Better. Badder"
    PERFORMER "The Deep End"
    ISRC AUGRB1200003
    INDEX 01 00:00:00
  TRACK 02 AUDIO
    TITLE "Get On It"
    PERFORMER "The Deep End"
    ISRC AUGRB1200004
    INDEX 01 04:01:27
  TRACK 03 AUDIO
    TITLE "No Time To Rest"
    PERFORMER "The Deep End"
    ISRC AUGRB1200005
    INDEX 01 07:12:43
  TRACK 04 AUDIO
    TITLE "Knife Fight"
    PERFORMER "The Deep End"
    ISRC AUGRB1200006
    INDEX 01 10:22:06
  TRACK 05 AUDIO
    TITLE "Cheap Night Out"
    PERFORMER "The Deep End"
    ISRC AUGRB1200007
    INDEX 01 13:07:38
  TRACK 06 AUDIO
    TITLE "Tatoos"
    PERFORMER "The Deep End"
    ISRC AUGRB1200008
    INDEX 01 17:32:02
  TRACK 07 AUDIO
    TITLE "Midnight Sun"
    PERFORMER "The Deep End"
    ISRC AUGRB1200009
    INDEX 01 21:32:73
  TRACK 08 AUDIO
    TITLE "Shit Talker"
    PERFORMER "The Deep End"
    ISRC AUGRB1200010
    INDEX 01 26:19:49
  TRACK 09 AUDIO
    TITLE "Trixxxy's Jam"
    PERFORMER "The Deep End"
    ISRC AUGRB1200011
    INDEX 01 29:23:74
  TRACK 10 AUDIO
    TITLE "Run With It"
    PERFORMER "The Deep End"
    ISRC AUGRB1200012
    INDEX 01 34:49:20
Download

Скачать (бесплатно и на максимальной скорости)!

Как скачивать  ·   Что такое torrent (торрент)  ·   Рейтинг и ограничения

Сайт не распространяет и не хранит электронные версии произведений, а лишь предоставляет доступ к создаваемому пользователями каталогу ссылок на торрент-файлы, которые содержат только списки хеш-сумм


 
Показать сообщения:    
Ответить на тему

Текущее время: 19-Сен 21:58

Часовой пояс: GMT + 3



Вы не можете начинать темы
Вы не можете отвечать на сообщения
Вы не можете редактировать свои сообщения
Вы не можете удалять свои сообщения
Вы не можете голосовать в опросах
Вы не можете прикреплять файлы к сообщениям
Вы не можете скачивать файлы



В начало страницы  •