Loading...
Error
Регистрация  · 
Имя: Пароль:    
 ·  Забыли пароль?
Правила пользования ресурсом

Обладатель VIP статуса на 24 часа: nikola120
стань следующим читай правила
Сегодня идет свободное скачивание без начисления скачанного

(Hard Rock) Whitesnake - Made In Japan (2CD) - 2013, FLAC (image + .cue), lossless

Ответить на тему
 
Автор Сообщение

DED


post 17-Июл-2013 19:16

 


Whitesnake - Made In Japan (2CD)



Страна: UK || Жанр: Hard Rock || Год выпуска: 2013 || Формат: FLAC (image + .cue) || Битрейт аудио: lossless ||Продолжительность: 01:55:15


продолжительность: 01:13:54

01. Best Years (06:29)
02. Give Me All Your Love Tonight (04:51)
03. Love Ain't No Stranger (04:23)
04. Is This Love (04:23)
05. Steal Your Heart Away (07:15)
06. Forevermore (06:55)
07. Six String Showdown (06:00)
08. Love Will Set You Free (04:34)
09. Drum Solo (07:31)
10. Fool For Your Loving (04:50)
11. Here I Go Again (06:02)
12. Still Of The Night (10:37)
продолжительность: 00:41:20

01. Love Will Set You Free (05:06)
02. Steal Your Heart Away (06:39)
03. Fare Thee Well (Acoustic Version) (04:47)
04. One Of These Days (Acoustic Version) (04:16)
05. Lay Down Your Love (06:44)
06. Evil Ways (06:18)
07. Good To Be Bad (Acoustic Version) (03:16)
08. Tell Me How (Acoustic Version) (04:11)


Код:

Exact Audio Copy V0.99 prebeta 5 from 4. May 2009

Отчёт EAC об извлечении, выполненном 23. апреля 2013, 19:25

Whitesnake / Made In Japan

Дисковод: PLEXTOR DVDR   PX-880SA   Adapter: 1  ID: 0

Режим чтения                 : Достоверность
Использование точного потока : Да
Отключение кэша аудио        : Да
Использование указателей C2  : Нет

Коррекция смещения при чтении                     : 6
Способность читать области Lead-in и Lead-out     : Нет
Заполнение пропущенных сэмплов тишиной            : Да
Удаление блоков с тишиной в начале и конце        : Нет
При вычислениях CRC использовались нулевые сэмплы : Да
Интерфейс                                         : Установленный внешний ASPI-интерфейс

Выходной формат          : Пользовательский кодировщик
Выбранный битрейт        : 1024 kBit/s
Качество                 : Высокий
Добавление ID3-тэга      : Нет
Утилита сжатия           : C:\Program Files\Exact Audio Copy\FLAC\FLAC.EXE
Дополнительные параметры : -10 -V -T "ARTIST=%a" -T "TITLE=%t" -T "ALBUM=%g" -T "DATE=%y" -T "TRACKNUMBER=%n" -T "GENRE=%m" -T "COMMENT=%e" %s -o %d

TOC извлечённого CD

     Трек |   Старт  | Длительность | Начальный сектор | Конечный сектор
    ---------------------------------------------------------------------
       1  |  0:00.00 |    6:29.27   |           0      |      29201
       2  |  6:29.27 |    4:51.47   |       29202      |      51073
       3  | 11:20.74 |    4:23.34   |       51074      |      70832
       4  | 15:44.33 |    4:23.14   |       70833      |      90571
       5  | 20:07.47 |    7:15.14   |       90572      |     123210
       6  | 27:22.61 |    6:55.35   |      123211      |     154370
       7  | 34:18.21 |    6:00.24   |      154371      |     181394
       8  | 40:18.45 |    4:34.41   |      181395      |     201985
       9  | 44:53.11 |    7:31.39   |      201986      |     235849
      10  | 52:24.50 |    4:50.50   |      235850      |     257649
      11  | 57:15.25 |    6:02.15   |      257650      |     284814
      12  | 63:17.40 |   10:37.06   |      284815      |     332595

Характеристики диапазона извлечения и сообщения об ошибках

Выбранный диапазон

     Имя файла D:\BitComet\Whitesnake - Made In Japan(2013)(flac)\CD 1\Whitesnake - Made In Japan.wav

     Пиковый уровень 97.5 %
     Качество диапазона 100.0 %
     CRC теста 32EBC82C
     CRC копии 32EBC82C
     Копирование... OK

Ошибок не произошло

AccurateRip: сводка

Трек  1  нет в базе данных
Трек  2  нет в базе данных
Трек  3  нет в базе данных
Трек  4  нет в базе данных
Трек  5  нет в базе данных
Трек  6  нет в базе данных
Трек  7  нет в базе данных
Трек  8  нет в базе данных
Трек  9  нет в базе данных
Трек 10  нет в базе данных
Трек 11  нет в базе данных
Трек 12  нет в базе данных

Ни одного трека нет в базе AccurateRip

Конец отчёта

Код:

Exact Audio Copy V0.99 prebeta 5 from 4. May 2009

Отчёт EAC об извлечении, выполненном 23. апреля 2013, 20:11

Whitesnake / Made in Japan (Bonus CD)

Дисковод: PLEXTOR DVDR   PX-880SA   Adapter: 1  ID: 0

Режим чтения                 : Достоверность
Использование точного потока : Да
Отключение кэша аудио        : Да
Использование указателей C2  : Нет

Коррекция смещения при чтении                     : 6
Способность читать области Lead-in и Lead-out     : Нет
Заполнение пропущенных сэмплов тишиной            : Да
Удаление блоков с тишиной в начале и конце        : Нет
При вычислениях CRC использовались нулевые сэмплы : Да
Интерфейс                                         : Установленный внешний ASPI-интерфейс

Выходной формат          : Пользовательский кодировщик
Выбранный битрейт        : 1024 kBit/s
Качество                 : Высокий
Добавление ID3-тэга      : Нет
Утилита сжатия           : C:\Program Files\Exact Audio Copy\FLAC\FLAC.EXE
Дополнительные параметры : -10 -V -T "ARTIST=%a" -T "TITLE=%t" -T "ALBUM=%g" -T "DATE=%y" -T "TRACKNUMBER=%n" -T "GENRE=%m" -T "COMMENT=%e" %s -o %d

TOC извлечённого CD

     Трек |   Старт  | Длительность | Начальный сектор | Конечный сектор
    ---------------------------------------------------------------------
       1  |  0:00.00 |    5:06.73   |           0      |      23022
       2  |  5:06.73 |    6:39.34   |       23023      |      52981
       3  | 11:46.32 |    4:47.07   |       52982      |      74513
       4  | 16:33.39 |    4:16.24   |       74514      |      93737
       5  | 20:49.63 |    6:44.70   |       93738      |     124107
       6  | 27:34.58 |    6:18.04   |      124108      |     152461
       7  | 33:52.62 |    3:16.34   |      152462      |     167195
       8  | 37:09.21 |    4:11.33   |      167196      |     186053

Характеристики диапазона извлечения и сообщения об ошибках

Выбранный диапазон

     Имя файла D:\BitComet\Whitesnake - Made In Japan(2013)(flac)\CD 2 - Bonus Audio\Whitesnake - Made in Japan (Bonus CD).wav

     Пиковый уровень 97.7 %
     Качество диапазона 100.0 %
     CRC теста 42575785
     CRC копии 42575785
     Копирование... OK

Ошибок не произошло

AccurateRip: сводка

Трек  1  нет в базе данных
Трек  2  нет в базе данных
Трек  3  нет в базе данных
Трек  4  нет в базе данных
Трек  5  нет в базе данных
Трек  6  нет в базе данных
Трек  7  нет в базе данных
Трек  8  нет в базе данных

Ни одного трека нет в базе AccurateRip

Конец отчёта

Код:

REM GENRE "Hard Rock"
REM DATE 2013
REM DISCID AE11520C
REM COMMENT "ExactAudioCopy v0.99pb5"
PERFORMER "Whitesnake"
TITLE "Made In Japan "
FILE "Whitesnake - Made In Japan.flac" WAVE
  TRACK 01 AUDIO
    TITLE "Best Years"
    PERFORMER "Whitesnake"
    INDEX 01 00:00:00
  TRACK 02 AUDIO
    TITLE "Give Me All Your Love Tonight"
    PERFORMER "Whitesnake"
    INDEX 01 06:29:27
  TRACK 03 AUDIO
    TITLE "Love Ain't No Stranger"
    PERFORMER "Whitesnake"
    INDEX 01 11:20:74
  TRACK 04 AUDIO
    TITLE "Is This Love"
    PERFORMER "Whitesnake"
    INDEX 01 15:44:33
  TRACK 05 AUDIO
    TITLE "Steal Your Heart Away"
    PERFORMER "Whitesnake"
    INDEX 01 20:07:47
  TRACK 06 AUDIO
    TITLE "Forevermore"
    PERFORMER "Whitesnake"
    INDEX 01 27:22:61
  TRACK 07 AUDIO
    TITLE "Six String Showdown"
    PERFORMER "Whitesnake"
    INDEX 01 34:18:21
  TRACK 08 AUDIO
    TITLE "Love Will Set You Free"
    PERFORMER "Whitesnake"
    INDEX 01 40:18:45
  TRACK 09 AUDIO
    TITLE "Drum Solo"
    PERFORMER "Whitesnake"
    INDEX 01 44:53:11
  TRACK 10 AUDIO
    TITLE "Fool For Your Loving"
    PERFORMER "Whitesnake"
    INDEX 01 52:24:50
  TRACK 11 AUDIO
    TITLE "Here I Go Again"
    PERFORMER "Whitesnake"
    INDEX 01 57:15:25
  TRACK 12 AUDIO
    TITLE "Still Of The Night"
    PERFORMER "Whitesnake"
    INDEX 01 63:17:40

Код:

REM GENRE "Hard Rock"
REM DATE 2013
REM DISCID 5F09B008
REM COMMENT "ExactAudioCopy v0.99pb5"
PERFORMER "Whitesnake"
TITLE "Made in Japan (Bonus CD)"
FILE "Whitesnake - Made in Japan (Bonus CD).flac" WAVE
  TRACK 01 AUDIO
    TITLE "Love Will Set You Free "
    PERFORMER "Whitesnake"
    INDEX 01 00:00:00
  TRACK 02 AUDIO
    TITLE "Steal Your Heart Away "
    PERFORMER "Whitesnake"
    INDEX 01 05:06:73
  TRACK 03 AUDIO
    TITLE "Fare Thee Well (Acoustic Version) "
    PERFORMER "Whitesnake"
    INDEX 01 11:46:32
  TRACK 04 AUDIO
    TITLE "One Of These Days (Acoustic Version) "
    PERFORMER "Whitesnake"
    INDEX 01 16:33:39
  TRACK 05 AUDIO
    TITLE "Lay Down Your Love "
    PERFORMER "Whitesnake"
    INDEX 01 20:49:63
  TRACK 06 AUDIO
    TITLE "Evil Ways "
    PERFORMER "Whitesnake"
    INDEX 01 27:34:58
  TRACK 07 AUDIO
    TITLE "Good To Be Bad (Acoustic Version) "
    PERFORMER "Whitesnake"
    INDEX 01 33:52:62
  TRACK 08 AUDIO
    TITLE "Tell Me How (Acoustic Version) "
    PERFORMER "Whitesnake"
    INDEX 01 37:09:21
Download

Скачать (бесплатно и на максимальной скорости)!

Как скачивать  ·   Что такое torrent (торрент)  ·   Рейтинг и ограничения

Сайт не распространяет и не хранит электронные версии произведений, а лишь предоставляет доступ к создаваемому пользователями каталогу ссылок на торрент-файлы, которые содержат только списки хеш-сумм


 
Показать сообщения:    
Ответить на тему

Текущее время: 24-Сен 15:23

Часовой пояс: GMT + 3



Вы не можете начинать темы
Вы не можете отвечать на сообщения
Вы не можете редактировать свои сообщения
Вы не можете удалять свои сообщения
Вы не можете голосовать в опросах
Вы не можете прикреплять файлы к сообщениям
Вы не можете скачивать файлы



В начало страницы  •