Loading...
Error
Регистрация  · 
Имя: Пароль:    
 ·  Забыли пароль?
Правила пользования ресурсом

Сегодня идет свободное скачивание без начисления скачанного

(Power/Speed Metal) Gamma Ray - Master of confusion - 2013, FLAC (image + .cue), lossless

Ответить на тему
 
Автор Сообщение

DED


post 17-Июл-2013 13:51

 


Gamma Ray - Master of confusion

Страна: Germany
Жанр: Power/Speed Metal
Год выпуска: 2013
Формат: FLAC (image + .cue)
Битрейт аудио: lossless
Продолжительность: 00:55:22

Трэклист:
01. Empire of the undead (04:24)
02. Master of confusion (04:55)
03. Death or glory (03:45)
04. Lost angels (04:01)
05. The spirit (Live) (04:22)
06. Wings of destiny (Live) (06:17)
07. Gamma Ray (Live) (04:43)
08. Farewell (Live) (05:44)
09. Time to break free (Live) (04:55)
10. Insurrection (Live) (12:11)

Доп. информация:

Код:

Exact Audio Copy V0.99 prebeta 5 from 4. May 2009

Отчёт EAC об извлечении, выполненном 25. марта 2013, 19:44

Gamma Ray / Master of confusion

Дисковод: ASUS    DRW-1814BL   Adapter: 4  ID: 1

Режим чтения                 : Достоверность
Использование точного потока : Да
Отключение кэша аудио        : Да
Использование указателей C2  : Нет

Коррекция смещения при чтении                     : 6
Способность читать области Lead-in и Lead-out     : Нет
Заполнение пропущенных сэмплов тишиной            : Да
Удаление блоков с тишиной в начале и конце        : Нет
При вычислениях CRC использовались нулевые сэмплы : Да
Интерфейс                                         : Установленный внешний ASPI-интерфейс

Выходной формат          : Пользовательский кодировщик
Выбранный битрейт        : 1024 kBit/s
Качество                 : Высокий
Добавление ID3-тэга      : Нет
Утилита сжатия           : C:\Program Files\Exact Audio Copy\FLAC\FLAC.EXE
Дополнительные параметры : -6 -V -T "ARTIST=%a" -T "TITLE=%t" -T "ALBUM=%g" -T "DATE=%y" -T "TRACKNUMBER=%n" -T "GENRE=%m" -T "COMMENT=%e" %s -o %d

TOC извлечённого CD

     Трек |   Старт  | Длительность | Начальный сектор | Конечный сектор
    ---------------------------------------------------------------------
       1  |  0:00.00 |    4:24.57   |           0      |      19856
       2  |  4:24.57 |    4:55.37   |       19857      |      42018
       3  |  9:20.19 |    3:45.72   |       42019      |      58965
       4  | 13:06.16 |    4:01.60   |       58966      |      77100
       5  | 17:08.01 |    4:22.08   |       77101      |      96758
       6  | 21:30.09 |    6:17.42   |       96759      |     125075
       7  | 27:47.51 |    4:43.65   |      125076      |     146365
       8  | 32:31.41 |    5:44.46   |      146366      |     172211
       9  | 38:16.12 |    4:55.17   |      172212      |     194353
      10  | 43:11.29 |   12:11.28   |      194354      |     249206

Характеристики диапазона извлечения и сообщения об ошибках

Выбранный диапазон

     Имя файла G:\Program files\Рипаная музыка\Gamma Ray - Master Of Confusion (EP)\Gamma Ray - Master of confusion.wav

     Пиковый уровень 100.0 %
     Качество диапазона 100.0 %
     CRC копии EB677378
     Копирование... OK

Ошибок не произошло

AccurateRip: сводка

Трек  1  нет в базе данных
Трек  2  нет в базе данных
Трек  3  нет в базе данных
Трек  4  нет в базе данных
Трек  5  нет в базе данных
Трек  6  нет в базе данных
Трек  7  нет в базе данных
Трек  8  нет в базе данных
Трек  9  нет в базе данных
Трек 10  нет в базе данных

Ни одного трека нет в базе AccurateRip

Конец отчёта

Код:

REM GENRE "Heavy Metal"
REM DATE 2013
REM DISCID 960CFA0A
REM COMMENT "ExactAudioCopy v0.99pb5"
PERFORMER "Gamma Ray"
TITLE "Master of confusion"
FILE "Gamma Ray - Master of confusion.flac" WAVE
  TRACK 01 AUDIO
    TITLE "Empire of the undead"
    PERFORMER "Gamma Ray"
    ISRC <cP821300030
    INDEX 01 00:00:00
  TRACK 02 AUDIO
    TITLE "Master of confusion"
    PERFORMER "Gamma Ray"
    ISRC <cP821300031
    INDEX 01 04:24:57
  TRACK 03 AUDIO
    TITLE "Death or glory"
    PERFORMER "Gamma Ray"
    ISRC <cP821300032
    INDEX 00 09:20:03
    INDEX 01 09:20:19
  TRACK 04 AUDIO
    TITLE "Lost angels"
    PERFORMER "Gamma Ray"
    ISRC <cP821300033
    INDEX 00 13:05:59
    INDEX 01 13:06:16
  TRACK 05 AUDIO
    TITLE "The spirit (Live)"
    PERFORMER "Gamma Ray"
    ISRC <cP821300034
    INDEX 00 17:06:27
    INDEX 01 17:08:01
  TRACK 06 AUDIO
    TITLE "Wings of destiny (Live)"
    PERFORMER "Gamma Ray"
    ISRC <cP821300035
    INDEX 01 21:30:09
  TRACK 07 AUDIO
    TITLE "Gamma Ray (Live)"
    PERFORMER "Gamma Ray"
    ISRC <cP821300035
    INDEX 01 27:47:51
  TRACK 08 AUDIO
    TITLE "Farewell (Live)"
    PERFORMER "Gamma Ray"
    ISRC <cP821300036
    INDEX 01 32:31:41
  TRACK 09 AUDIO
    TITLE "Time to break free (Live)"
    PERFORMER "Gamma Ray"
    ISRC <cP821300038
    INDEX 01 38:16:12
  TRACK 10 AUDIO
    TITLE "Insurrection (Live)"
    PERFORMER "Gamma Ray"
    ISRC <cP821300039
    INDEX 01 43:11:29
Download

Скачать (бесплатно и на максимальной скорости)!

Как скачивать  ·   Что такое torrent (торрент)  ·   Рейтинг и ограничения

Сайт не распространяет и не хранит электронные версии произведений, а лишь предоставляет доступ к создаваемому пользователями каталогу ссылок на торрент-файлы, которые содержат только списки хеш-сумм


 
Показать сообщения:    
Ответить на тему

Текущее время: 31-Окт 13:21

Часовой пояс: GMT + 3



Вы не можете начинать темы
Вы не можете отвечать на сообщения
Вы не можете редактировать свои сообщения
Вы не можете удалять свои сообщения
Вы не можете голосовать в опросах
Вы не можете прикреплять файлы к сообщениям
Вы не можете скачивать файлы



В начало страницы  •