Loading...
Error
Регистрация  · 
Имя: Пароль:    
 ·  Забыли пароль?
Правила пользования ресурсом

Сегодня идет свободное скачивание без начисления скачанного

(Heavy Metal) Iron Maiden - Maiden England '88 (2CD) - 2013, WAVPack (image + .cue), lossless

Ответить на тему
 
Автор Сообщение

DED


post 17-Июл-2013 13:36

 


Iron Maiden - Maiden England '88 (2CD)

Страна: UK
Жанр: Heavy Metal
Год выпуска: 2013
Формат: WAVPack (image + .cue)
Битрейт аудио: lossless
Продолжительность: 01:40:34



продолжительность: 00:53:34

01. Moonchild (06:23)
02. The Evil That Men Do (04:17)
03. The Prisoner (05:59)
04. Still Life (04:31)
05. Die With Your Boots On (05:18)
06. Infinite Dreams (05:52)
07. Killers (04:56)
08. Can I Play With Madness (03:25)
09. Heaven Can Wait (07:42)
10. Wasted Years (05:05)

продолжительность: 00:46:59

01. The Clairvoyant (04:29)
02. Seventh Son Of A Seventh Son (10:08)
03. The Number Of The Beast (04:47)
04. Hallowed Be Thy Name (07:21)
05. Iron Maiden (05:11)
06. Run To The Hills (04:01)
07. Running Free (05:33)
08. Sanctuary (05:24)


Код:

Exact Audio Copy V1.0 beta 3 from 29. August 2011

EAC extraction logfile from 23. March 2013, 1:42

Iron Maiden / Maiden England '88 [EMI 50999 973 615 2 7,CD1]

Used drive  : Optiarc DVD RW AD-7200S   Adapter: 5  ID: 1

Read mode               : Secure
Utilize accurate stream : Yes
Defeat audio cache      : Yes
Make use of C2 pointers : No

Read offset correction                      : 48
Overread into Lead-In and Lead-Out          : No
Fill up missing offset samples with silence : Yes
Delete leading and trailing silent blocks   : No
Null samples used in CRC calculations       : Yes
Used interface                              : Installed external ASPI interface

Used output format              : User Defined Encoder
Selected bitrate                : 1024 kBit/s
Quality                         : High
Add ID3 tag                     : No
Command line compressor         : D:\Program Files (x86)\Exact Audio Copy\wavpack.exe
Additional command line options : -hlmx2 %source% %dest%

TOC of the extracted CD

     Track |   Start  |  Length  | Start sector | End sector
    ---------------------------------------------------------
        1  |  0:00.00 |  6:23.02 |         0    |    28726
        2  |  6:23.02 |  4:17.59 |     28727    |    48060
        3  | 10:40.61 |  5:59.54 |     48061    |    75039
        4  | 16:40.40 |  4:31.74 |     75040    |    95438
        5  | 21:12.39 |  5:18.69 |     95439    |   119357
        6  | 26:31.33 |  5:52.74 |    119358    |   145831
        7  | 32:24.32 |  4:56.61 |    145832    |   168092
        8  | 37:21.18 |  3:25.15 |    168093    |   183482
        9  | 40:46.33 |  7:42.41 |    183483    |   218173
       10  | 48:28.74 |  5:05.57 |    218174    |   241105

Range status and errors

Selected range

     Filename D:\eac\Iron Maiden 1\CD1\Iron Maiden - Maiden England '88 [EMI 50999 973 615 2 7,CD1].wav

     Peak level 100.0 %
     Extraction speed 4.0 X
     Range quality 99.9 %
     Test CRC 4EAD2A4F
     Copy CRC 4EAD2A4F
     Copy OK

No errors occurred

AccurateRip summary

Track  1  not present in database
Track  2  not present in database
Track  3  not present in database
Track  4  not present in database
Track  5  not present in database
Track  6  not present in database
Track  7  not present in database
Track  8  not present in database
Track  9  not present in database
Track 10  not present in database

None of the tracks are present in the AccurateRip database

End of status report

Код:

Exact Audio Copy V1.0 beta 3 from 29. August 2011

EAC extraction logfile from 23. March 2013, 2:14

Iron Maiden / Maiden England '88 [EMI 50999 973 615 2 7,CD2]

Used drive  : Optiarc DVD RW AD-7200S   Adapter: 5  ID: 1

Read mode               : Secure
Utilize accurate stream : Yes
Defeat audio cache      : Yes
Make use of C2 pointers : No

Read offset correction                      : 48
Overread into Lead-In and Lead-Out          : No
Fill up missing offset samples with silence : Yes
Delete leading and trailing silent blocks   : No
Null samples used in CRC calculations       : Yes
Used interface                              : Installed external ASPI interface

Used output format              : User Defined Encoder
Selected bitrate                : 1024 kBit/s
Quality                         : High
Add ID3 tag                     : No
Command line compressor         : D:\Program Files (x86)\Exact Audio Copy\wavpack.exe
Additional command line options : -hlmx2 %source% %dest%

TOC of the extracted CD

     Track |   Start  |  Length  | Start sector | End sector
    ---------------------------------------------------------
        1  |  0:00.00 |  4:29.72 |         0    |    20246
        2  |  4:29.72 | 10:08.36 |     20247    |    65882
        3  | 14:38.33 |  4:47.13 |     65883    |    87420
        4  | 19:25.46 |  7:21.47 |     87421    |   120542
        5  | 26:47.18 |  5:11.41 |    120543    |   143908
        6  | 31:58.59 |  4:01.54 |    143909    |   162037
        7  | 36:00.38 |  5:33.65 |    162038    |   187077
        8  | 41:34.28 |  5:24.70 |    187078    |   211447

Range status and errors

Selected range

     Filename D:\eac\Iron Maiden 1\CD2\Iron Maiden - Maiden England '88 [EMI 50999 973 615 2 7,CD2].wav

     Peak level 100.0 %
     Extraction speed 3.7 X
     Range quality 99.9 %
     Test CRC 88C34302
     Copy CRC 88C34302
     Copy OK

No errors occurred

AccurateRip summary

Track  1  not present in database
Track  2  not present in database
Track  3  not present in database
Track  4  not present in database
Track  5  not present in database
Track  6  not present in database
Track  7  not present in database
Track  8  not present in database

None of the tracks are present in the AccurateRip database

End of status report

Код:

REM GENRE "Heavy Metal"
REM DATE 2013
REM DISCID 7E0C8E0A
REM COMMENT "ExactAudioCopy v1.0b3"
PERFORMER "Iron Maiden"
TITLE "Maiden England '88 [EMI 50999 973 615 2 7,CD1]"
FILE "Iron Maiden - 2013 - Maiden England '88 [EMI 50999 973 615 2 7,CD1].wv" WAVE
  TRACK 01 AUDIO
    TITLE "Moonchild"
    PERFORMER "Iron Maiden"
    ISRC GBCHB0910484
    FLAGS DCP
    INDEX 01 00:00:00
  TRACK 02 AUDIO
    TITLE "The Evil That Men Do"
    PERFORMER "Iron Maiden"
    ISRC GBCHB0910485
    FLAGS DCP
    INDEX 01 06:23:02
  TRACK 03 AUDIO
    TITLE "The Prisoner"
    PERFORMER "Iron Maiden"
    ISRC GBCHB0910486
    FLAGS DCP
    INDEX 01 10:40:61
  TRACK 04 AUDIO
    TITLE "Still Life"
    PERFORMER "Iron Maiden"
    ISRC GBCHB0910487
    FLAGS DCP
    INDEX 01 16:40:40
  TRACK 05 AUDIO
    TITLE "Die With Your Boots On"
    PERFORMER "Iron Maiden"
    ISRC GBCHB0910488
    FLAGS DCP
    INDEX 01 21:12:39
  TRACK 06 AUDIO
    TITLE "Infinite Dreams"
    PERFORMER "Iron Maiden"
    ISRC GBCHB0910489
    FLAGS DCP
    INDEX 01 26:31:33
  TRACK 07 AUDIO
    TITLE "Killers"
    PERFORMER "Iron Maiden"
    ISRC GBCHB0910490
    FLAGS DCP
    INDEX 01 32:24:32
  TRACK 08 AUDIO
    TITLE "Can I Play With Madness"
    PERFORMER "Iron Maiden"
    ISRC GBCHB0910491
    FLAGS DCP
    INDEX 01 37:21:18
  TRACK 09 AUDIO
    TITLE "Heaven Can Wait"
    PERFORMER "Iron Maiden"
    ISRC GBCHB0910492
    FLAGS DCP
    INDEX 01 40:46:33
  TRACK 10 AUDIO
    TITLE "Wasted Years"
    PERFORMER "Iron Maiden"
    ISRC GBCHB0910493
    FLAGS DCP
    INDEX 01 48:28:74

Код:

REM GENRE "Heavy Metal"
REM DATE 2013
REM DISCID 670B0308
REM COMMENT "ExactAudioCopy v1.0b3"
PERFORMER "Iron Maiden"
TITLE "Maiden England '88 [EMI 50999 973 615 2 7,CD2]"
FILE "Iron Maiden - 2013 - Maiden England '88 [EMI 50999 973 615 2 7,CD2].wv" WAVE
  TRACK 01 AUDIO
    TITLE "The Clairvoyant"
    PERFORMER "Iron Maiden"
    ISRC GBCHB0910494
    FLAGS DCP
    INDEX 01 00:00:00
  TRACK 02 AUDIO
    TITLE "Seventh Son Of A Seventh Son"
    PERFORMER "Iron Maiden"
    ISRC GBCHB0910495
    FLAGS DCP
    INDEX 01 04:29:72
  TRACK 03 AUDIO
    TITLE "The Number Of The Beast"
    PERFORMER "Iron Maiden"
    ISRC GBCHB0910496
    FLAGS DCP
    INDEX 01 14:38:33
  TRACK 04 AUDIO
    TITLE "Hallowed Be Thy Name"
    PERFORMER "Iron Maiden"
    ISRC GBCHB0910497
    FLAGS DCP
    INDEX 01 19:25:46
  TRACK 05 AUDIO
    TITLE "Iron Maiden"
    PERFORMER "Iron Maiden"
    ISRC GBCHB0910498
    FLAGS DCP
    INDEX 01 26:47:18
  TRACK 06 AUDIO
    TITLE "Run To The Hills"
    PERFORMER "Iron Maiden"
    ISRC GBCHB1210584
    FLAGS DCP
    INDEX 01 31:58:59
  TRACK 07 AUDIO
    TITLE "Running Free"
    PERFORMER "Iron Maiden"
    ISRC GBCHB1210585
    FLAGS DCP
    INDEX 01 36:00:38
  TRACK 08 AUDIO
    TITLE "Sanctuary"
    PERFORMER "Iron Maiden"
    ISRC GBCHB1210586
    FLAGS DCP
    INDEX 01 41:34:28
Download

Скачать (бесплатно и на максимальной скорости)!

Как скачивать  ·   Что такое torrent (торрент)  ·   Рейтинг и ограничения

Сайт не распространяет и не хранит электронные версии произведений, а лишь предоставляет доступ к создаваемому пользователями каталогу ссылок на торрент-файлы, которые содержат только списки хеш-сумм


 
Показать сообщения:    
Ответить на тему

Текущее время: 31-Окт 11:03

Часовой пояс: GMT + 3



Вы не можете начинать темы
Вы не можете отвечать на сообщения
Вы не можете редактировать свои сообщения
Вы не можете удалять свои сообщения
Вы не можете голосовать в опросах
Вы не можете прикреплять файлы к сообщениям
Вы не можете скачивать файлы



В начало страницы  •