Loading...
Error
Регистрация  · 
Имя: Пароль:    
 ·  Забыли пароль?
Правила пользования ресурсом

Сегодня идет свободное скачивание без начисления скачанного

(Rock, Folk Rock, Melodic Rock, Pop Rock) Rod Stewart - Time - 2013, FLAC (image + .cue), lossless

Ответить на тему
 
Автор Сообщение

DED


post 07-Июл-2013 13:31

 





Rod Stewart - Time
Страна: UK
Жанр: Rock, Folk Rock, Melodic Rock, Pop Rock
Год выпуска: 2013
Формат: FLAC (image + .cue)
Битрейт аудио: lossless
Продолжительность: 00:50:20

Трэклист:
01. She Makes Me Happy (03:44)
02. Can't Stop Me Now (04:26)
03. It's Over (04:19)
04. Brighton Beach (04:25)
05. Beautiful Morning (03:59)
06. Live The Life (04:26)
07. Finest Woman (03:54)
08. Time (04:27)
09. Picture In A Frame (02:53)
10. Sexual Religion (04:45)
11. Make Love To Me Tonight (03:45)
12. Pure Love (05:11)

Код:

Exact Audio Copy V0.99 prebeta 5 from 4. May 2009

EAC extraction logfile from 8. May 2013, 16:58

Rod Stewart / Time

Used drive  : PLEXTOR DVDR   PX-L891SA   Adapter: 0  ID: 1

Read mode               : Secure
Utilize accurate stream : Yes
Defeat audio cache      : Yes
Make use of C2 pointers : No

Read offset correction                      : 6
Overread into Lead-In and Lead-Out          : No
Fill up missing offset samples with silence : Yes
Delete leading and trailing silent blocks   : No
Null samples used in CRC calculations       : Yes
Used interface                              : Native Win32 interface for Win NT & 2000

Used output format              : User Defined Encoder
Selected bitrate                : 1024 kBit/s
Quality                         : High
Add ID3 tag                     : No
Command line compressor         : C:\Program Files\Exact Audio Copy\Flac\flac.exe
Additional command line options : -8 -V -T "artist=%a" -T "title=%t" -T "album=%g" -T "date=%y" -T "tracknumber=%n" -T "genre=%m" %s

TOC of the extracted CD

     Track |   Start  |  Length  | Start sector | End sector
    ---------------------------------------------------------
        1  |  0:00.00 |  3:44.27 |         0    |    16826
        2  |  3:44.27 |  4:26.49 |     16827    |    36825
        3  |  8:11.01 |  4:19.22 |     36826    |    56272
        4  | 12:30.23 |  4:25.43 |     56273    |    76190
        5  | 16:55.66 |  3:59.19 |     76191    |    94134
        6  | 20:55.10 |  4:26.41 |     94135    |   114125
        7  | 25:21.51 |  3:54.70 |    114126    |   131745
        8  | 29:16.46 |  4:27.42 |    131746    |   151812
        9  | 33:44.13 |  2:53.47 |    151813    |   164834
       10  | 36:37.60 |  4:45.64 |    164835    |   186273
       11  | 41:23.49 |  3:45.07 |    186274    |   203155
       12  | 45:08.56 |  5:11.26 |    203156    |   226506

Range status and errors

Selected range

     Filename C:\Temp\Rod Stewart - Time (2013).wav

     Peak level 100.0 %
     Range quality 99.9 %
     Test CRC 7232D10A
     Copy CRC 7232D10A
     Copy OK

No errors occurred

AccurateRip summary

Track  1  not present in database
Track  2  not present in database
Track  3  not present in database
Track  4  not present in database
Track  5  not present in database
Track  6  not present in database
Track  7  not present in database
Track  8  not present in database
Track  9  not present in database
Track 10  not present in database
Track 11  not present in database
Track 12  not present in database

None of the tracks are present in the AccurateRip database

End of status report

Код:

REM GENRE "Rock, Folk Rock, Melodic Rock, Pop Rock"
REM DATE 2013
REM DISCID 9E0BCC0C
REM COMMENT "ExactAudioCopy v0.99pb5"
CATALOG 5099993478922
PERFORMER "Rod Stewart"
TITLE "Time"
FILE "Rod Stewart - Time (2013).flac" WAVE
  TRACK 01 AUDIO
    TITLE "She Makes Me Happy"
    PERFORMER "Rod Stewart"
    INDEX 01 00:00:00
  TRACK 02 AUDIO
    TITLE "Can't Stop Me Now"
    PERFORMER "Rod Stewart"
    INDEX 01 03:44:27
  TRACK 03 AUDIO
    TITLE "It's Over"
    PERFORMER "Rod Stewart"
    INDEX 01 08:11:01
  TRACK 04 AUDIO
    TITLE "Brighton Beach"
    PERFORMER "Rod Stewart"
    INDEX 01 12:30:23
  TRACK 05 AUDIO
    TITLE "Beautiful Morning"
    PERFORMER "Rod Stewart"
    INDEX 00 16:55:63
    INDEX 01 16:55:66
  TRACK 06 AUDIO
    TITLE "Live The Life"
    PERFORMER "Rod Stewart"
    INDEX 00 20:54:47
    INDEX 01 20:55:10
  TRACK 07 AUDIO
    TITLE "Finest Woman"
    PERFORMER "Rod Stewart"
    INDEX 01 25:21:51
  TRACK 08 AUDIO
    TITLE "Time"
    PERFORMER "Rod Stewart"
    INDEX 00 29:16:15
    INDEX 01 29:16:46
  TRACK 09 AUDIO
    TITLE "Picture In A Frame"
    PERFORMER "Rod Stewart"
    INDEX 00 33:43:44
    INDEX 01 33:44:13
  TRACK 10 AUDIO
    TITLE "Sexual Religion"
    PERFORMER "Rod Stewart"
    INDEX 00 36:37:21
    INDEX 01 36:37:60
  TRACK 11 AUDIO
    TITLE "Make Love To Me Tonight"
    PERFORMER "Rod Stewart"
    INDEX 01 41:23:49
  TRACK 12 AUDIO
    TITLE "Pure Love"
    PERFORMER "Rod Stewart"
    INDEX 00 45:08:04
    INDEX 01 45:08:56
Download

Скачать (бесплатно и на максимальной скорости)!

Как скачивать  ·   Что такое torrent (торрент)  ·   Рейтинг и ограничения

Сайт не распространяет и не хранит электронные версии произведений, а лишь предоставляет доступ к создаваемому пользователями каталогу ссылок на торрент-файлы, которые содержат только списки хеш-сумм


 
Показать сообщения:    
Ответить на тему

Текущее время: 21-Сен 09:31

Часовой пояс: GMT + 3



Вы не можете начинать темы
Вы не можете отвечать на сообщения
Вы не можете редактировать свои сообщения
Вы не можете удалять свои сообщения
Вы не можете голосовать в опросах
Вы не можете прикреплять файлы к сообщениям
Вы не можете скачивать файлы



В начало страницы  •