Loading...
Error
Регистрация  · 
Имя: Пароль:    
 ·  Забыли пароль?
Правила пользования ресурсом

Обладатель VIP статуса на 24 часа: nikola120
стань следующим читай правила
Сегодня идет свободное скачивание без начисления скачанного

Airbourne - Black Dog Barking - 2013, FLAC (tracks+.cue), lossless

Ответить на тему
 
Автор Сообщение

DED


post 07-Июл-2013 13:28

 


Airbourne - Black Dog Barking

Страна: Australia
Жанр: Hard Rock,Heavy Metal
Год выпуска: 2013
Формат: FLAC (tracks + .cue)
Битрейт аудио: lossless
Продолжительность: 00:34:55


01. Ready To Rock (05:24)
02. Animalize (03:03)
03. No One Fits Me (Better Than You) (03:06)
04. Back In The Game (03:25)
05. Firepower (02:59)
06. Live It Up (04:22)
07. Woman Like That (03:14)
08. Hungry (02:56)
09. Gradle To The Grave (03:22)
10. Black Dog Barking (02:59)


Код:

Exact Audio Copy V1.0 beta 3 from 29. August 2011

EAC extraction logfile from 21. May 2013, 17:19

Airbourne / Black Dog Barking

Used drive  : TSSTcorpCDDVDW SH-222BB   Adapter: 0  ID: 2

Read mode               : Secure
Utilize accurate stream : Yes
Defeat audio cache      : Yes
Make use of C2 pointers : No

Read offset correction                      : 6
Overread into Lead-In and Lead-Out          : No
Fill up missing offset samples with silence : Yes
Delete leading and trailing silent blocks   : No
Null samples used in CRC calculations       : Yes
Used interface                              : Native Win32 interface for Win NT & 2000
Gap handling                                : Appended to previous track

Used output format              : User Defined Encoder
Selected bitrate                : 1024 kBit/s
Quality                         : High
Add ID3 tag                     : No
Command line compressor         : C:\Program Files (x86)\Exact Audio Copy\Flac\flac.exe
Additional command line options : -8 -V -T "ARTIST=%artist%" -T "TITLE=%title%" -T "ALBUM=%albumtitle%" -T "DATE=%year%" -T "TRACKNUMBER=%tracknr%" -T "GENRE=%genre%" -T "PERFORMER=%albuminterpret%" -T "COMPOSER=%composer%" %haslyrics%--tag-from-file=LYRICS="%lyricsfile%"%haslyrics% -T "ALBUMARTIST=%albumartist%" -T "DISCNUMBER=%cdnumber%" -T "TOTALDISCS=%totalcds%" -T "TOTALTRACKS=%numtracks%" -T "COMMENT=%comment%" %source% -o %dest%

TOC of the extracted CD

     Track |   Start  |  Length  | Start sector | End sector
    ---------------------------------------------------------
        1  |  0:00.00 |  5:24.68 |         0    |    24367
        2  |  5:24.68 |  3:03.06 |     24368    |    38098
        3  |  8:27.74 |  3:06.45 |     38099    |    52093
        4  | 11:34.44 |  3:25.38 |     52094    |    67506
        5  | 15:00.07 |  2:59.24 |     67507    |    80955
        6  | 17:59.31 |  4:22.52 |     80956    |   100657
        7  | 22:22.08 |  3:14.22 |    100658    |   115229
        8  | 25:36.30 |  2:56.48 |    115230    |   128477
        9  | 28:33.03 |  3:22.43 |    128478    |   143670
       10  | 31:55.46 |  2:59.53 |    143671    |   157148

Track  1

     Filename D:\EAC Rips\Airbourne - Black Dog Barking (2013) [FLAC]\01 - Ready To Rock.wav

     Pre-gap length  0:00:02.00

     Peak level 97.7 %
     Extraction speed 1.8 X
     Track quality 100.0 %
     Test CRC AA3980A9
     Copy CRC AA3980A9
     Track not present in AccurateRip database
     Copy OK

Track  2

     Filename D:\EAC Rips\Airbourne - Black Dog Barking (2013) [FLAC]\02 - Animalize.wav

     Peak level 97.7 %
     Extraction speed 1.8 X
     Track quality 100.0 %
     Test CRC 420692DB
     Copy CRC 420692DB
     Track not present in AccurateRip database
     Copy OK

Track  3

     Filename D:\EAC Rips\Airbourne - Black Dog Barking (2013) [FLAC]\03 - No One Fits Me (Better Than You).wav

     Peak level 97.7 %
     Extraction speed 2.0 X
     Track quality 100.0 %
     Test CRC EE3BB2A3
     Copy CRC EE3BB2A3
     Track not present in AccurateRip database
     Copy OK

Track  4

     Filename D:\EAC Rips\Airbourne - Black Dog Barking (2013) [FLAC]\04 - Back In The Game.wav

     Peak level 97.7 %
     Extraction speed 1.8 X
     Track quality 99.9 %
     Test CRC BEBF4162
     Copy CRC BEBF4162
     Track not present in AccurateRip database
     Copy OK

Track  5

     Filename D:\EAC Rips\Airbourne - Black Dog Barking (2013) [FLAC]\05 - Firepower.wav

     Peak level 97.7 %
     Extraction speed 2.2 X
     Track quality 100.0 %
     Test CRC A683FCB8
     Copy CRC A683FCB8
     Track not present in AccurateRip database
     Copy OK

Track  6

     Filename D:\EAC Rips\Airbourne - Black Dog Barking (2013) [FLAC]\06 - Live It Up.wav

     Peak level 97.7 %
     Extraction speed 2.5 X
     Track quality 100.0 %
     Test CRC FEC7F24C
     Copy CRC FEC7F24C
     Track not present in AccurateRip database
     Copy OK

Track  7

     Filename D:\EAC Rips\Airbourne - Black Dog Barking (2013) [FLAC]\07 - Woman Like That.wav

     Peak level 97.7 %
     Extraction speed 2.5 X
     Track quality 100.0 %
     Test CRC 297F5F8C
     Copy CRC 297F5F8C
     Track not present in AccurateRip database
     Copy OK

Track  8

     Filename D:\EAC Rips\Airbourne - Black Dog Barking (2013) [FLAC]\08 - Hungry.wav

     Peak level 97.7 %
     Extraction speed 1.9 X
     Track quality 99.9 %
     Test CRC 6724231E
     Copy CRC 6724231E
     Track not present in AccurateRip database
     Copy OK

Track  9

     Filename D:\EAC Rips\Airbourne - Black Dog Barking (2013) [FLAC]\09 - Gradle To The Grave.wav

     Peak level 97.7 %
     Extraction speed 2.7 X
     Track quality 100.0 %
     Test CRC 23B0EFD2
     Copy CRC 23B0EFD2
     Track not present in AccurateRip database
     Copy OK

Track 10

     Filename D:\EAC Rips\Airbourne - Black Dog Barking (2013) [FLAC]\10 - Black Dog Barking.wav

     Peak level 97.7 %
     Extraction speed 2.7 X
     Track quality 100.0 %
     Test CRC D8A03DE0
     Copy CRC D8A03DE0
     Track not present in AccurateRip database
     Copy OK

None of the tracks are present in the AccurateRip database

No errors occurred

End of status report

---- CUETools DB Plugin V2.1.3

[CTDB TOCID: LOrDdS8h4An7vewOc6pJ2bYQfTA-] found, Submit result: already submitted
[10158aad] (1/1) Accurately ripped

Код:

REM GENRE Rock
REM DATE 2013
REM DISCID 82082F0A
REM COMMENT "ExactAudioCopy v1.0b3"
PERFORMER "Airbourne"
TITLE "Black Dog Barking"
FILE "01 - Ready To Rock.flac" WAVE
  TRACK 01 AUDIO
    TITLE "Ready To Rock"
    PERFORMER "Airbourne"
    INDEX 01 00:00:00
FILE "02 - Animalize.flac" WAVE
  TRACK 02 AUDIO
    TITLE "Animalize"
    PERFORMER "Airbourne"
    INDEX 01 00:00:00
FILE "03 - No One Fits Me (Better Than You).flac" WAVE
  TRACK 03 AUDIO
    TITLE "No One Fits Me (Better Than You)"
    PERFORMER "Airbourne"
    INDEX 01 00:00:00
FILE "04 - Back In The Game.flac" WAVE
  TRACK 04 AUDIO
    TITLE "Back In The Game"
    PERFORMER "Airbourne"
    INDEX 01 00:00:00
FILE "05 - Firepower.flac" WAVE
  TRACK 05 AUDIO
    TITLE "Firepower"
    PERFORMER "Airbourne"
    INDEX 01 00:00:00
FILE "06 - Live It Up.flac" WAVE
  TRACK 06 AUDIO
    TITLE "Live It Up"
    PERFORMER "Airbourne"
    INDEX 01 00:00:00
FILE "07 - Woman Like That.flac" WAVE
  TRACK 07 AUDIO
    TITLE "Woman Like That"
    PERFORMER "Airbourne"
    INDEX 01 00:00:00
FILE "08 - Hungry.flac" WAVE
  TRACK 08 AUDIO
    TITLE "Hungry"
    PERFORMER "Airbourne"
    INDEX 01 00:00:00
FILE "09 - Gradle To The Grave.flac" WAVE
  TRACK 09 AUDIO
    TITLE "Gradle To The Grave"
    PERFORMER "Airbourne"
    INDEX 01 00:00:00
FILE "10 - Black Dog Barking.flac" WAVE
  TRACK 10 AUDIO
    TITLE "Black Dog Barking"
    PERFORMER "Airbourne"
    INDEX 01 00:00:00
Download

Скачать (бесплатно и на максимальной скорости)!

Как скачивать  ·   Что такое torrent (торрент)  ·   Рейтинг и ограничения

Сайт не распространяет и не хранит электронные версии произведений, а лишь предоставляет доступ к создаваемому пользователями каталогу ссылок на торрент-файлы, которые содержат только списки хеш-сумм


 
Показать сообщения:    
Ответить на тему

Текущее время: 20-Окт 08:33

Часовой пояс: GMT + 3



Вы не можете начинать темы
Вы не можете отвечать на сообщения
Вы не можете редактировать свои сообщения
Вы не можете удалять свои сообщения
Вы не можете голосовать в опросах
Вы не можете прикреплять файлы к сообщениям
Вы не можете скачивать файлы



В начало страницы  •