Loading...
Error
Регистрация  · 
Имя: Пароль:    
 ·  Забыли пароль?
Правила пользования ресурсом

Обладатель VIP статуса на 24 часа: nikola120
стань следующим читай правила
Сегодня идет свободное скачивание без начисления скачанного

(Rock, Melodic Rock, Pop Rock) Chris Norman - Heartbreaking Hits (2CD) - 2004, FLAC (image + .cue), lossless

Ответить на тему
 
Автор Сообщение

DED


post 07-Июл-2013 13:25

 


Chris Norman - Heartbreaking Hits (2CD)


Страна: UK || Жанр: Rock, Folk Rock, Melodic Rock, Pop Rock || Год выпуска: 2004 ||Формат: FLAC (image + .cue) || Битрейт аудио: lossless || Продолжительность: 02:13:36


продолжительность: 01:06:38
01. Midnight Lady (03:14)
02. Broken Heroes (03:21)
03. Sarah (You Take My Breath Away) (04:41)
04. I Want To Be Needed (Duet With Shari Belafonte) (03:27)
05. Never Make My Angel Cry (04:06)
06. Hunters Of The Night (04:06)
07. Chain Reaction (03:41)
08. It's A Tragedy (03:43)
09. Love For Sale (03:25)
10. A Bridge At Midnight (04:34)
11. For The Good Years (04:46)
12. Hearts Livin'on Emotion (04:13)
13. Ordinary Heart (03:57)
14. She Said She Was A Lucky Girl (03:17)
15. Vision Of Life (04:15)
16. Stop At Nothing (03:31)
17. Till The Night We Meet Again (04:15)
продолжительность: 01:06:58
01. Some Hearts Are Diamonds (03:44)
02. No Arms Can Ever Hold You (03:45)
03. Woman In Love (04:28)
04. Love Is... (03:32)
05. Here Comes The Night (04:46)
06. Wings Of Love (04:26)
07. Give A Little Love (04:06)
08. Hands Tied (04:15)
09. Broken Heroes (Maxi Version) (07:31)
10. Midnight Lady (Maxi Version) (05:04)
11. Ordinary Heart (Maxi Version) (06:01)
12. Sarah (You Take My Breath Away) (Maxi Version) (05:57)
13. Midnight Lady (Karaoke Version) (04:10)
14. Some Hearts Are Diamonds (Karaoke Version) (03:42)
15. Broken Heroes (Karaoke Version) (03:23)

Код:

Exact Audio Copy V1.0 beta 3 from 29. August 2011

Отчёт EAC об извлечении, выполненном 12. июня 2013, 21:44

Chris Norman / Heartbreaking Hits (CD1)

Дисковод: HL-DT-STDVDRAM GH20NS10   Adapter: 0  ID: 1

Режим чтения                 : Достоверность
Использование точного потока : Да
Отключение кэша аудио        : Да
Использование указателей C2  : Нет

Коррекция смещения при чтении                     : 667
Способность читать области Lead-in и Lead-out     : Нет
Заполнение пропущенных сэмплов тишиной            : Да
Удаление блоков с тишиной в начале и конце        : Нет
При вычислениях CRC использовались нулевые сэмплы : Да
Интерфейс                                         : Встроенный Win32-интерфейс для Win NT/2000

Выходной формат : Внутренние WAV-операции
Формат сэмплов  : 44.100 Гц; 16 бит; стерео

TOC извлечённого CD

     Трек |   Старт  | Длительность | Начальный сектор | Конечный сектор
    ---------------------------------------------------------------------
       1  |  0:00.00 |    3:14.45   |           0      |      14594
       2  |  3:14.45 |    3:21.28   |       14595      |      29697
       3  |  6:35.73 |    4:41.39   |       29698      |      50811
       4  | 11:17.37 |    3:27.49   |       50812      |      66385
       5  | 14:45.11 |    4:06.69   |       66386      |      84904
       6  | 18:52.05 |    4:06.04   |       84905      |     103358
       7  | 22:58.09 |    3:41.44   |      103359      |     119977
       8  | 26:39.53 |    3:43.17   |      119978      |     136719
       9  | 30:22.70 |    3:25.51   |      136720      |     152145
      10  | 33:48.46 |    4:34.12   |      152146      |     172707
      11  | 38:22.58 |    4:46.70   |      172708      |     194227
      12  | 43:09.53 |    4:13.11   |      194228      |     213213
      13  | 47:22.64 |    3:57.04   |      213214      |     230992
      14  | 51:19.68 |    3:17.10   |      230993      |     245777
      15  | 54:37.03 |    4:15.04   |      245778      |     264906
      16  | 58:52.07 |    3:31.09   |      264907      |     280740
      17  | 62:23.16 |    4:15.08   |      280741      |     299873

Характеристики диапазона извлечения и сообщения об ошибках

Выбранный диапазон

     Имя файла C:\rwa12\Chris Norman - Heartbreaking Hits (CD1).wav

     Пиковый уровень 97.7 %
     Скорость извлечения 8.3 X
     Качество диапазона 100.0 %
     CRC теста 8037C758
     CRC копии 8037C758
     Копирование... OK

Ошибок не произошло

AccurateRip: сводка

Трек  1  : извлечено точно (доверие 1)  [1DACD72E]  (AR v1)
Трек  2  : извлечено точно (доверие 1)  [7D9B726D]  (AR v1)
Трек  3  : извлечено точно (доверие 1)  [DE6FFAFB]  (AR v1)
Трек  4  : извлечено точно (доверие 1)  [657B1250]  (AR v1)
Трек  5  : извлечено точно (доверие 1)  [2662581B]  (AR v1)
Трек  6  : извлечено точно (доверие 1)  [5052ACC8]  (AR v1)
Трек  7  : извлечено точно (доверие 1)  [11BDED31]  (AR v1)
Трек  8  : извлечено точно (доверие 1)  [D68BB045]  (AR v1)
Трек  9  : извлечено точно (доверие 1)  [EEF9CBB5]  (AR v1)
Трек 10  : извлечено точно (доверие 1)  [055B5E71]  (AR v1)
Трек 11  : извлечено точно (доверие 1)  [9820A9AA]  (AR v1)
Трек 12  : извлечено точно (доверие 1)  [E9585292]  (AR v1)
Трек 13  : извлечено точно (доверие 1)  [B45C9F89]  (AR v1)
Трек 14  : извлечено точно (доверие 1)  [634E5254]  (AR v1)
Трек 15  : извлечено точно (доверие 1)  [B810407E]  (AR v1)
Трек 16  : извлечено точно (доверие 1)  [0D6B49FA]  (AR v1)
Трек 17  : извлечено точно (доверие 1)  [9C84352C]  (AR v1)

Все треки извлечены точно

Конец отчёта

Код:

Exact Audio Copy V1.0 beta 3 from 29. August 2011

Отчёт EAC об извлечении, выполненном 12. июня 2013, 22:17

Chris Norman / Heartbreaking Hits (CD2)

Дисковод: HL-DT-STDVDRAM GH20NS10   Adapter: 0  ID: 1

Режим чтения                 : Достоверность
Использование точного потока : Да
Отключение кэша аудио        : Да
Использование указателей C2  : Нет

Коррекция смещения при чтении                     : 667
Способность читать области Lead-in и Lead-out     : Нет
Заполнение пропущенных сэмплов тишиной            : Да
Удаление блоков с тишиной в начале и конце        : Нет
При вычислениях CRC использовались нулевые сэмплы : Да
Интерфейс                                         : Встроенный Win32-интерфейс для Win NT/2000

Выходной формат : Внутренние WAV-операции
Формат сэмплов  : 44.100 Гц; 16 бит; стерео

TOC извлечённого CD

     Трек |   Старт  | Длительность | Начальный сектор | Конечный сектор
    ---------------------------------------------------------------------
       1  |  0:00.00 |    3:44.30   |           0      |      16829
       2  |  3:44.30 |    3:45.32   |       16830      |      33736
       3  |  7:29.62 |    4:28.16   |       33737      |      53852
       4  | 11:58.03 |    3:32.12   |       53853      |      69764
       5  | 15:30.15 |    4:46.68   |       69765      |      91282
       6  | 20:17.08 |    4:26.74   |       91283      |     111306
       7  | 24:44.07 |    4:06.55   |      111307      |     129811
       8  | 28:50.62 |    4:15.03   |      129812      |     148939
       9  | 33:05.65 |    7:31.55   |      148940      |     182819
      10  | 40:37.45 |    5:04.15   |      182820      |     205634
      11  | 45:41.60 |    6:01.74   |      205635      |     232783
      12  | 51:43.59 |    5:57.51   |      232784      |     259609
      13  | 57:41.35 |    4:10.66   |      259610      |     278425
      14  | 61:52.26 |    3:42.44   |      278426      |     295119
      15  | 65:34.70 |    3:23.30   |      295120      |     310374

Характеристики диапазона извлечения и сообщения об ошибках

Выбранный диапазон

     Имя файла C:\rwa12\Chris Norman - Heartbreaking Hits (CD2).wav

     Пиковый уровень 94.4 %
     Скорость извлечения 8.2 X
     Качество диапазона 100.0 %
     CRC теста 279399BC
     CRC копии 279399BC
     Копирование... OK

Ошибок не произошло

AccurateRip: сводка

Трек  1  : извлечено точно (доверие 1)  [4F2110E4]  (AR v1)
Трек  2  : извлечено точно (доверие 1)  [93BF0EBE]  (AR v1)
Трек  3  : извлечено точно (доверие 1)  [D3DC1343]  (AR v1)
Трек  4  : извлечено точно (доверие 1)  [35AF3066]  (AR v1)
Трек  5  : извлечено точно (доверие 1)  [BDDEB9A8]  (AR v1)
Трек  6  : извлечено точно (доверие 1)  [BEE9979D]  (AR v1)
Трек  7  : извлечено точно (доверие 1)  [48B08545]  (AR v1)
Трек  8  : извлечено точно (доверие 1)  [A9ED78BF]  (AR v1)
Трек  9  : извлечено точно (доверие 1)  [FE9E167A]  (AR v1)
Трек 10  : извлечено точно (доверие 1)  [E12DEE21]  (AR v1)
Трек 11  : извлечено точно (доверие 1)  [357445E9]  (AR v1)
Трек 12  : извлечено точно (доверие 1)  [069B061D]  (AR v1)
Трек 13  : извлечено точно (доверие 1)  [E63AC9A6]  (AR v1)
Трек 14  : извлечено точно (доверие 1)  [74020130]  (AR v1)
Трек 15  : извлечено точно (доверие 1)  [CAAA409D]  (AR v1)

Все треки извлечены точно

Конец отчёта

Код:

REM GENRE "Soft/Melodic Rock"
REM DATE 2004
REM DISCID F20F9E11
REM COMMENT "ExactAudioCopy v1.0b3"
PERFORMER "Chris Norman"
TITLE "Heartbreaking Hits (CD1)"
FILE "Chris Norman - Heartbreaking Hits (CD1).flac" WAVE
  TRACK 01 AUDIO
    TITLE "Midnight Lady"
    PERFORMER "Chris Norman"
    INDEX 01 00:00:00
  TRACK 02 AUDIO
    TITLE "Broken Heroes"
    PERFORMER "Chris Norman"
    INDEX 00 03:13:74
    INDEX 01 03:14:45
  TRACK 03 AUDIO
    TITLE "Sarah (You Take My Breath Away)"
    PERFORMER "Chris Norman"
    INDEX 00 06:35:39
    INDEX 01 06:35:73
  TRACK 04 AUDIO
    TITLE "I Want To Be Needed (Duet With Shari Belafonte)"
    PERFORMER "Chris Norman"
    INDEX 00 11:17:07
    INDEX 01 11:17:37
  TRACK 05 AUDIO
    TITLE "Never Make My Angel Cry"
    PERFORMER "Chris Norman"
    INDEX 00 14:44:56
    INDEX 01 14:45:11
  TRACK 06 AUDIO
    TITLE "Hunters Of The Night"
    PERFORMER "Chris Norman"
    INDEX 00 18:51:46
    INDEX 01 18:52:05
  TRACK 07 AUDIO
    TITLE "Chain Reaction"
    PERFORMER "Chris Norman"
    INDEX 00 22:57:54
    INDEX 01 22:58:09
  TRACK 08 AUDIO
    TITLE "It's A Tragedy"
    PERFORMER "Chris Norman"
    INDEX 00 26:39:17
    INDEX 01 26:39:53
  TRACK 09 AUDIO
    TITLE "Love For Sale"
    PERFORMER "Chris Norman"
    INDEX 00 30:22:32
    INDEX 01 30:22:70
  TRACK 10 AUDIO
    TITLE "A Bridge At Midnight"
    PERFORMER "Chris Norman"
    INDEX 00 33:48:16
    INDEX 01 33:48:46
  TRACK 11 AUDIO
    TITLE "For The Good Years"
    PERFORMER "Chris Norman"
    INDEX 00 38:22:20
    INDEX 01 38:22:58
  TRACK 12 AUDIO
    TITLE "Hearts Livin'on Emotion"
    PERFORMER "Chris Norman"
    INDEX 00 43:09:15
    INDEX 01 43:09:53
  TRACK 13 AUDIO
    TITLE "Ordinary Heart"
    PERFORMER "Chris Norman"
    INDEX 00 47:22:34
    INDEX 01 47:22:64
  TRACK 14 AUDIO
    TITLE "She Said She Was A Lucky Girl"
    PERFORMER "Chris Norman"
    INDEX 00 51:19:34
    INDEX 01 51:19:68
  TRACK 15 AUDIO
    TITLE "Vision Of Life"
    PERFORMER "Chris Norman"
    INDEX 00 54:36:44
    INDEX 01 54:37:03
  TRACK 16 AUDIO
    TITLE "Stop At Nothing"
    PERFORMER "Chris Norman"
    INDEX 00 58:51:42
    INDEX 01 58:52:07
  TRACK 17 AUDIO
    TITLE "Till The Night We Meet Again"
    PERFORMER "Chris Norman"
    INDEX 00 62:22:57
    INDEX 01 62:23:16

Код:

REM GENRE "Soft/Melodic Rock"
REM DATE 2004
REM DISCID D2102A0F
REM COMMENT "ExactAudioCopy v1.0b3"
PERFORMER "Chris Norman"
TITLE "Heartbreaking Hits (CD2)"
FILE "Chris Norman - Heartbreaking Hits (CD2).flac" WAVE
  TRACK 01 AUDIO
    TITLE "Some Hearts Are Diamonds"
    PERFORMER "Chris Norman"
    INDEX 01 00:00:00
  TRACK 02 AUDIO
    TITLE "No Arms Can Ever Hold You"
    PERFORMER "Chris Norman"
    INDEX 00 03:43:64
    INDEX 01 03:44:30
  TRACK 03 AUDIO
    TITLE "Woman In Love"
    PERFORMER "Chris Norman"
    INDEX 00 07:29:02
    INDEX 01 07:29:62
  TRACK 04 AUDIO
    TITLE "Love Is..."
    PERFORMER "Chris Norman"
    INDEX 00 11:57:42
    INDEX 01 11:58:03
  TRACK 05 AUDIO
    TITLE "Here Comes The Night"
    PERFORMER "Chris Norman"
    INDEX 00 15:29:48
    INDEX 01 15:30:15
  TRACK 06 AUDIO
    TITLE "Wings Of Love"
    PERFORMER "Chris Norman"
    INDEX 00 20:16:37
    INDEX 01 20:17:08
  TRACK 07 AUDIO
    TITLE "Give A Little Love"
    PERFORMER "Chris Norman"
    INDEX 00 24:43:35
    INDEX 01 24:44:07
  TRACK 08 AUDIO
    TITLE "Hands Tied"
    PERFORMER "Chris Norman"
    INDEX 00 28:50:02
    INDEX 01 28:50:62
  TRACK 09 AUDIO
    TITLE "Broken Heroes (Maxi Version)"
    PERFORMER "Chris Norman"
    INDEX 00 33:05:15
    INDEX 01 33:05:65
  TRACK 10 AUDIO
    TITLE "Midnight Lady (Maxi Version)"
    PERFORMER "Chris Norman"
    INDEX 00 40:36:60
    INDEX 01 40:37:45
  TRACK 11 AUDIO
    TITLE "Ordinary Heart (Maxi Version)"
    PERFORMER "Chris Norman"
    INDEX 00 45:41:15
    INDEX 01 45:41:60
  TRACK 12 AUDIO
    TITLE "Sarah (You Take My Breath Away) (Maxi Version)"
    PERFORMER "Chris Norman"
    INDEX 00 51:43:10
    INDEX 01 51:43:59
  TRACK 13 AUDIO
    TITLE "Midnight Lady (Karaoke Version)"
    PERFORMER "Chris Norman"
    INDEX 00 57:40:68
    INDEX 01 57:41:35
  TRACK 14 AUDIO
    TITLE "Some Hearts Are Diamonds (Karaoke Version)"
    PERFORMER "Chris Norman"
    INDEX 00 61:51:50
    INDEX 01 61:52:26
  TRACK 15 AUDIO
    TITLE "Broken Heroes (Karaoke Version)"
    PERFORMER "Chris Norman"
    INDEX 00 65:34:33
    INDEX 01 65:34:70

Download

Скачать (бесплатно и на максимальной скорости)!

Как скачивать  ·   Что такое torrent (торрент)  ·   Рейтинг и ограничения

Сайт не распространяет и не хранит электронные версии произведений, а лишь предоставляет доступ к создаваемому пользователями каталогу ссылок на торрент-файлы, которые содержат только списки хеш-сумм


 
Показать сообщения:    
Ответить на тему

Текущее время: 30-Окт 17:03

Часовой пояс: GMT + 3



Вы не можете начинать темы
Вы не можете отвечать на сообщения
Вы не можете редактировать свои сообщения
Вы не можете удалять свои сообщения
Вы не можете голосовать в опросах
Вы не можете прикреплять файлы к сообщениям
Вы не можете скачивать файлы



В начало страницы  •