Loading...
Error
Регистрация  · 
Имя: Пароль:    
 ·  Забыли пароль?
Правила пользования ресурсом

До Нового года осталось:
Обладатель VIP статуса на 24 часа: nikola120
стань следующим читай правила
Сегодня идет свободное скачивание без начисления скачанного

(Hard Rock,Heavy Metal) Ratt - Infestation (Japanese PRCY - 21364) - 2010, FLAC (image + .cue), lossless

Ответить на тему
 
Автор Сообщение

DED


post 07-Июл-2013 13:12

 

Ratt - Infestation (Japanese PRCY - 21364)

Страна: USA
Жанр: Hard Rock,Heavy Metal
Год выпуска: 2010
Формат: FLAC (image + .cue)
Битрейт аудио: lossless
Продолжительность: 00:46:40


01. Eat Me Up Alive (04:12)
02. Best of Me (04:18)
03. A Little Too Much (04:04)
04. Look Out Below (03:44)
05. Last Call (03:55)
06. Lost Weekend (03:45)
07. As Good As It Gets (04:38)
08. Garden of Eden (03:02)
09. Take a Big Bite (02:46)
10. Take Me Home (04:22)
11. Don't Let Go (03:22)
12. Scatter (Bonus Track) (04:26)


Код:

Exact Audio Copy V1.0 beta 3 from 29. August 2011

Отчёт EAC об извлечении, выполненном 28. апреля 2012, 1:54

Ratt / Infestation

Дисковод: ATAPI   iHAS124   B   Adapter: 3  ID: 2

Режим чтения                 : Достоверность
Использование точного потока : Да
Отключение кэша аудио        : Да
Использование указателей C2  : Нет

Коррекция смещения при чтении                     : 6
Способность читать области Lead-in и Lead-out     : Нет
Заполнение пропущенных сэмплов тишиной            : Да
Удаление блоков с тишиной в начале и конце        : Нет
При вычислениях CRC использовались нулевые сэмплы : Да
Интерфейс                                         : Встроенный Win32-интерфейс для Win NT/2000

Выходной формат          : Пользовательский кодировщик
Выбранный битрейт        : 768 kBit/s
Качество                 : Высокий
Добавление ID3-тега      : Нет
Утилита сжатия           : C:\Program Files\Exact Audio Copy\FLAC\FLAC.EXE
Дополнительные параметры : -6 -V -T "ARTIST=%artist%" -T "TITLE=%title%" -T "ALBUM=%albumtitle%" -T "DATE=%year%" -T "TRACKNUMBER=%tracknr%" -T "GENRE=%genre%" -T "COMMENT=%comment%" -T "BAND=%albuminterpret%" -T "ALBUMARTIST=%albuminterpret%" -T "COMPOSER=%composer%" %haslyrics%--tag-from-file=LYRICS="%lyricsfile%"%haslyrics% -T "DISCNUMBER=%cdnumber%" -T "TOTALDISCS=%totalcds%" -T "TOTALTRACKS=%numtracks%" %hascover%--picture="%coverfile%"%hascover% %source% -o %dest%

TOC извлечённого CD

     Трек |   Старт  | Длительность | Начальный сектор | Конечный сектор
    ---------------------------------------------------------------------
       1  |  0:00.00 |    4:12.44   |           0      |      18943
       2  |  4:12.44 |    4:18.49   |       18944      |      38342
       3  |  8:31.18 |    4:04.55   |       38343      |      56697
       4  | 12:35.73 |    3:44.19   |       56698      |      73516
       5  | 16:20.17 |    3:55.06   |       73517      |      91147
       6  | 20:15.23 |    3:45.56   |       91148      |     108078
       7  | 24:01.04 |    4:38.32   |      108079      |     128960
       8  | 28:39.36 |    3:02.51   |      128961      |     142661
       9  | 31:42.12 |    2:46.35   |      142662      |     155146
      10  | 34:28.47 |    4:22.71   |      155147      |     174867
      11  | 38:51.43 |    3:22.23   |      174868      |     190040
      12  | 42:13.66 |    4:26.17   |      190041      |     210007

Характеристики диапазона извлечения и сообщения об ошибках

Выбранный диапазон

     Имя файла C:\Documents and Settings\Administrator\Рабочий стол\Новая папка\Ratt - Infestation.wav

     Пиковый уровень 100.0 %
     Скорость извлечения 7.9 X
     Качество диапазона 99.9 %
     CRC теста FEC89F65
     CRC копии FEC89F65
     Копирование... OK

Ошибок не произошло

AccurateRip: сводка

Трек  1  : извлечено точно (доверие 2)  [31A41400]  (AR v1)
Трек  2  : извлечено точно (доверие 2)  [C71EDC5E]  (AR v1)
Трек  3  : извлечено точно (доверие 2)  [F9AA5719]  (AR v1)
Трек  4  : извлечено точно (доверие 2)  [51D8F97E]  (AR v1)
Трек  5  : извлечено точно (доверие 2)  [B72A507A]  (AR v1)
Трек  6  : извлечено точно (доверие 2)  [61186807]  (AR v1)
Трек  7  : извлечено точно (доверие 2)  [F3EBAFD0]  (AR v1)
Трек  8  : извлечено точно (доверие 2)  [80227065]  (AR v1)
Трек  9  : извлечено точно (доверие 2)  [0B060C14]  (AR v1)
Трек 10  : извлечено точно (доверие 2)  [B0EDC584]  (AR v1)
Трек 11  : извлечено точно (доверие 2)  [6786EA4C]  (AR v1)
Трек 12  : извлечено точно (доверие 2)  [11780B47]  (AR v1)

Все треки извлечены точно

Конец отчёта

Код:

REM GENRE Hard Rock
REM DATE 2010
REM DISCID 8F0AF00C
REM COMMENT ExactAudioCopy v1.0b3
PERFORMER "Ratt"
TITLE "Infestation"
FILE "Ratt - Infestation.flac" WAVE
  TRACK 01 AUDIO
    TITLE "Eat Me Up Alive"
    INDEX 01 00:00:00
  TRACK 02 AUDIO
    TITLE "Best of Me"
    INDEX 01 04:12:44
  TRACK 03 AUDIO
    TITLE "A Little Too Much"
    INDEX 01 08:31:18
  TRACK 04 AUDIO
    TITLE "Look Out Below"
    INDEX 01 12:35:73
  TRACK 05 AUDIO
    TITLE "Last Call"
    INDEX 01 16:20:17
  TRACK 06 AUDIO
    TITLE "Lost Weekend"
    INDEX 01 20:15:23
  TRACK 07 AUDIO
    TITLE "As Good As It Gets"
    INDEX 01 24:01:04
  TRACK 08 AUDIO
    TITLE "Garden of Eden"
    INDEX 01 28:39:36
  TRACK 09 AUDIO
    TITLE "Take a Big Bite"
    INDEX 01 31:42:12
  TRACK 10 AUDIO
    TITLE "Take Me Home"
    INDEX 01 34:28:47
  TRACK 11 AUDIO
    TITLE "Don't Let Go"
    INDEX 01 38:51:43
  TRACK 12 AUDIO
    TITLE "Scatter (Bonus Track)"
    INDEX 01 42:13:66
Download

Скачать (бесплатно и на максимальной скорости)!

Как скачивать  ·   Что такое torrent (торрент)  ·   Рейтинг и ограничения

Сайт не распространяет и не хранит электронные версии произведений, а лишь предоставляет доступ к создаваемому пользователями каталогу ссылок на торрент-файлы, которые содержат только списки хеш-сумм


 
Показать сообщения:    
Ответить на тему

Текущее время: 18-Янв 03:05

Часовой пояс: GMT + 3



Вы не можете начинать темы
Вы не можете отвечать на сообщения
Вы не можете редактировать свои сообщения
Вы не можете удалять свои сообщения
Вы не можете голосовать в опросах
Вы не можете прикреплять файлы к сообщениям
Вы не можете скачивать файлы