Loading...
Error
Регистрация  · 
Имя: Пароль:    
 ·  Забыли пароль?
Правила пользования ресурсом

Сегодня идет свободное скачивание без начисления скачанного

[iPhone] Доктор Хаус / House M.D. (Сезон 1-8 / Серии 1-177 из 177 +Special) (Грег Яйтанс, Питер О’Фаллон, Мэтт Сакман) [2004-2012 г., драма, WEB-DLRip] MVO

Ответить на тему
 
Автор Сообщение

Theseus


post 19-Ноя-2012 18:11

 


Год выпуска: 2004-2012
Страна: США
Жанр: комедия
Продолжительность серии: ~ 00:45:00
Перевод:
1.Профессиональный многоголосый закадровый - LostFilm
2.Профессиональный многоголосый закадровый - NovaFilm
Количество сезонов: 8
Количество серий:
22 из 22 | 24 из 24 | 24 из 24 | 16 из 16 | 24 из 24 | 22 из 22 | 23 из 23 | 22 из 22 + Special
Режиссёр:Грег Яйтанс, Питер О’Фаллон, Мэтт Сакман
В ролях:Хью Лори, Роберт Шон Леонард, Джесси Спенсер, Лиза Эдельштейн, Омар Эппс, Дженнифер Моррисон, Боббин Бергсторм, Оливия Уайлд, Питер Джекобсон, Кэл Пенн и другие.
Описание:Сериал House, M.D. рассказывает о команде врачей, которые должны правильно поставить диагноз пациенту и спасти его. В принципе сериал представляет из себя вариацию схемы «врач как детектив», но в отличие от остальных сериалов, где врачи обследуют уже мертвого пациента, в House, M.D. больной находится еще в живых.
Возглавляет команду доктор Грегори Хаус, который ходит с тростью после того, как его мышечный инфаркт в правой ноге слишком поздно правильно диагностировали. Как врач Хаус просто гений, но сам не отличается проникновенностью в общении с больными и с удовольствием избегает их, если только есть возможность. Он сам всё время проводит в борьбе с собственной болью, а трость в его руке только подчеркивает его жесткую, ядовитую манеру общения. Порой его поведение можно назвать почти бесчеловечным, и при этом он прекрасный врач, обладающий нетипичным умом и безупречным инстинктом, что снискало ему глубокое уважение. Будучи инфекционистом, он ещё и замечательный диагност, который любит разгадывать медицинские загадки, чтобы спасти кому-то жизнь. Если бы все было по его воле, то Хаус лечил бы больных не выходя из своего кабинета.
Качество: WEB-DLRip
Формат: mov
Видео кодек: x264
аудио кодек: ААС
Видео: x.264, 576х320 (16:9), 556 Kbps, 23.976 fps
Аудио 1 : 128 Кбит/сек; 2 канала; 48,0 КГц |Русский Профессиональный многоголосый закадровый,LostFilm|
Аудио 2 : 128 Кбит/сек; 2 канала; 48,0 КГц |Русский Профессиональный многоголосый закадровый,NovaFilm|
Аудио 3 : 128 Кбит/сек; 2 канала; 48,0 КГц |Английский Оригинальная звуковая дорожка|
Субтитры: русские, английские
Вшитая обложка: есть
Доп. теги: прописаны
Телешоу/видеоклип : прописан
Серия/сезон: прописан
Поддерживаемые устройства: iPhone, iPod nano, iPod touch, iPad (1,2,3)
Общее
Полное имя : G:\Раздачи\Видео\House M.D. (320p)\House M.D. (320p)\Season 1\House.M.D.S01E01.320p.WEB-DLRip.Stroller.mov
Формат : MPEG-4
Профиль формата : QuickTime
Идентификатор кодека : qt
Размер файла : 299 Мбайт
Продолжительность : 44 м.
Общий поток : 950 Кбит/сек
Название фильма : Пилот (Pilot)
Альбом : Доктор Хаус (House M.D.)
Дорожка/Положение : 1
Дорожка/Всего : 22
Исполнитель : Доктор Хаус (House M.D.)
Жанр : Drama
Дата записи : UTC 2006-09-05 07:00:00
Дата кодирования : UTC 2011-08-08 19:54:08
Дата пометки : UTC 2011-08-08 19:54:54
Программа кодирования : HandBrake 0.9.5 2011010300
Библиотека кодирования : Apple QuickTime 7.6.9
Правообладатель : Stroller
Обложка : Yes
Примечание : © by RG Apple from за это можно получить - БАН!
com.apple.quicktime.player.movie : (Binary)
iTunEXTC : us-tv|TV-14|500|
tvsh : Доктор Хаус (House M.D.)
tvnn : FOX
tven : Пилот (Pilot)
tvsn : 1
tves : 1
desc : Сериал House, M.D. рассказывает о команде врачей, которые должны правильно поставить диагноз пациенту и спасти его.
ldes : Сериал House, M.D. рассказывает о команде врачей, которые должны правильно поставить диагноз пациенту и спасти его. В принципе сериал представляет из себя вариацию схемы «врач как детектив», но в отличие от остальных сериалов, где врачи обследуют уже мертвого пациента, в House, M.D. больной находится еще в живых.
stik : 10
Видео
Идентификатор : 1
Формат : AVC
Формат/Информация : Advanced Video Codec
Профиль формата : [email protected]
Параметр CABAC формата : Нет
Параметр ReFrames формата : 3 кадра
Идентификатор кодека : avc1
Идентификатор кодека/Информация : Advanced Video Coding
Продолжительность : 44 м.
Вид битрейта : Переменный
Битрейт : 556 Кбит/сек
Ширина : 576 пикс.
Высота : 320 пикс.
Соотношение сторон : 16:9
Режим частоты кадров : Переменный
Частота кадров : 23,976 кадр/сек
Минимальная частота кадров : 8,000 кадр/сек
Максимальная частота кадров : 24,390 кадр/сек
Цветовое пространство : YUV
Подвыборка цветности : 4:2:0
Битовая глубина : 8 бит
Тип развёртки : Прогрессивная
Бит/(Пиксели*Кадры) : 0.126
Размер потока : 175 Мбайт (58%)
Заголовок : Обработчик видео Apple / Обработчик псевдонимов Apple
Библиотека кодирования : x264 core 112
Настройки программы : cabac=0 / ref=3 / deblock=1:0:0 / analyse=0x1:0x111 / me=umh / subme=6 / psy=1 / psy_rd=1.00:0.00 / mixed_ref=1 / me_range=16 / chroma_me=1 / trellis=0 / 8x8dct=0 / cqm=0 / deadzone=21,11 / fast_pskip=1 / chroma_qp_offset=-2 / threads=3 / sliced_threads=0 / nr=0 / decimate=1 / interlaced=0 / constrained_intra=0 / bframes=0 / weightp=0 / keyint=240 / keyint_min=23 / scenecut=40 / intra_refresh=0 / rc_lookahead=40 / rc=crf / mbtree=1 / crf=20.5 / qcomp=0.60 / qpmin=3 / qpmax=51 / qpstep=4 / ip_ratio=1.40 / aq=1:1.00
Дата кодирования : UTC 2011-08-07 18:20:27
Дата пометки : UTC 2011-08-08 19:54:54
Основные цвета : BT.709-5, BT.1361, IEC 61966-2-4, SMPTE RP177
Характеристики трансфера : BT.709-5, BT.1361
Коэффициенты матрицы : BT.709-5, BT.1361, IEC 61966-2-4 709, SMPTE RP177
Аудио #1
Идентификатор : 2
Формат : AAC
Формат/Информация : Advanced Audio Codec
Профиль формата : LC
Идентификатор кодека : 40
Продолжительность : 44 м.
Вид битрейта : Переменный
Битрейт : 128 Кбит/сек
Максимальный битрейт : 300 Кбит/сек
Каналы : 2 канала
Расположение каналов : Front: L R
Частота : 48,0 КГц
Метод сжатия : С потерями
Размер потока : 40,3 Мбайт (13%)
Заголовок : Обработчик звука Apple / Обработчик псевдонимов Apple
Язык : 32
Дата кодирования : UTC 2011-08-07 18:20:27
Дата пометки : UTC 2011-08-08 19:54:54
Аудио #2
Идентификатор : 3
Формат : AAC
Формат/Информация : Advanced Audio Codec
Профиль формата : LC
Идентификатор кодека : 40
Продолжительность : 44 м.
Вид битрейта : Переменный
Битрейт : 128 Кбит/сек
Максимальный битрейт : 154 Кбит/сек
Каналы : 2 канала
Расположение каналов : Front: L R
Частота : 48,0 КГц
Метод сжатия : С потерями
Размер потока : 40,3 Мбайт (13%)
Заголовок : Обработчик звука Apple / Обработчик псевдонимов Apple
Язык : 32
Дата кодирования : UTC 2011-08-07 18:20:27
Дата пометки : UTC 2011-08-08 19:54:54
Аудио #3
Идентификатор : 4
Формат : AAC
Формат/Информация : Advanced Audio Codec
Профиль формата : LC
Идентификатор кодека : 40
Продолжительность : 44 м.
Вид битрейта : Переменный
Битрейт : 128 Кбит/сек
Максимальный битрейт : 197 Кбит/сек
Каналы : 2 канала
Расположение каналов : Front: L R
Частота : 48,0 КГц
Метод сжатия : С потерями
Размер потока : 40,3 Мбайт (13%)
Заголовок : Обработчик звука Apple / Обработчик псевдонимов Apple
Язык : English
Дата кодирования : UTC 2011-08-07 18:20:27
Дата пометки : UTC 2011-08-08 19:54:54
Текст #1
Идентификатор : 5
Формат : Timed text
Режим смешивания : sbtl
Идентификатор кодека : tx3g
Продолжительность : 43 м.
Вид битрейта : Переменный
Битрейт : 173 бит/сек
Размер потока : 55,4 Кбайт (0%)
Заголовок : Обработчик субтитров Apple / Обработчик псевдонимов Apple
Язык : 32
Дата кодирования : UTC 2011-08-08 19:51:27
Дата пометки : UTC 2011-08-08 19:54:54
Текст #2
Идентификатор : 6
Формат : Timed text
Режим смешивания : sbtl
Идентификатор кодека : tx3g
Продолжительность : 43 м.
Вид битрейта : Переменный
Битрейт : 98 бит/сек
Размер потока : 30,9 Кбайт (0%)
Заголовок : Обработчик субтитров Apple / Обработчик псевдонимов Apple
Язык : English
Дата кодирования : UTC 2011-08-08 19:51:46
Дата пометки : UTC 2011-08-08 19:54:54
Выбрать альтернативный язык звукового сопровождения: Нажмите , затем выберите язык из списка "Аудио".
Показать или скрыть субтитры: Нажмите , затем из списка "Субтитры" выберите язык или "Выкл".
Выбрать главу (эпизод): Нажмите , затем из списка выберете нужную главу (эпизод).
Видео -> настройки -> вкл./выкл. альтернативное аудио
Видео -> настройки -> вкл./выкл. субтитры
Сезон 1
Сезон 2
Сезон 3
Сезон 4
Сезон 5
Сезон 6
Сезон 7
Сезон 8


Download

Скачать (бесплатно и на максимальной скорости)!

Как скачивать  ·   Что такое torrent (торрент)  ·   Рейтинг и ограничения

Сайт не распространяет и не хранит электронные версии произведений, а лишь предоставляет доступ к создаваемому пользователями каталогу ссылок на торрент-файлы, которые содержат только списки хеш-сумм


 
Показать сообщения:    
Ответить на тему

Текущее время: 19-Сен 02:24

Часовой пояс: GMT + 3



Вы не можете начинать темы
Вы не можете отвечать на сообщения
Вы не можете редактировать свои сообщения
Вы не можете удалять свои сообщения
Вы не можете голосовать в опросах
Вы не можете прикреплять файлы к сообщениям
Вы не можете скачивать файлы



В начало страницы  •