Loading...
Error
Регистрация  · 
Имя: Пароль:    
 ·  Забыли пароль?
Правила пользования ресурсом

Сегодня идет свободное скачивание без начисления скачанного

[iPad] Bcпoмнить вcё / Тоtаl Rесаll (Лeн Уaйзмaн) [2012, Фантастика, боевик, триллер, BDRip] DUB |Extended Cut|

Ответить на тему
 
Автор Сообщение

Theseus


post 19-Ноя-2012 15:12

 


Bcпoмнить вcё / Тоtаl Rесаll
Расширенная версия (Extended Cut)

Год выпуска: 2012
Страна: США, Канада
Жанр: Фантастика, боевик, триллер, приключения
Продолжительность: 02:10:16
Перевод: Профессиональный (дублированный)
Режиссёр: Лeн Уaйзмaн/ Lеn Wisеmаn
В ролях: Колин Фаррелл, Кейт Бекинсейл, Джессика Бил, Брайан Крэнстон, Джон Чо, Билл Найи, Букем Вудбайн, Уилл Юн Ли, Милтон Барнс, Джеймс Макгоун, Майкл Терриоль, Натали Лисинска, Стивен МакДональд, Мишель Морган, Дилан Смит, Эндрю Муди, Кейтлин Вонг, Стив Байерс, Дэнни Во, Джеффри Паунсетт, Джесси Бонд, Уоррен Белль, Винсент Розер, Брукс Дарнелл, Бретт Донахью, Джеймс Доунинг, Саймон Синн, Лиза Чандлер, Миранда Джейд, Филип Моран, Клайв Эшборн, Билл Култер, Брайан Родригез.
Описание:Он — обычный рабочий-строитель, живущий в маленькой квартирке в захудалом районе города будущего где-то в Новой Азии. Хотя собственная жизнь его в целом устраивает, он не может избавиться от чувства, что ему хочется чего-то большего. Потребность в новых будоражащих впечатлениях приводит его в офис компании «Вспомнить всё», имплантирующей в память своих клиентов воспоминания-фантазии, которые они могут получить не рискуя при этом пережить сами события в реальности. Пока герой выбирает, какие именно воспоминания ему приобрести, отряд спецназа штурмует комнату, где он находится, и уже было берет его под арест. К своему собственному удивлению, он молниеносно уничтожает весь отряд при помощи невероятных бойцовских навыков, о владении которыми он и не подозревал.

Качество: BDRip
Формат: m4v
Видео кодек: H.26x
Аудио кодек: AAC
Видео: H.264, 1024х432 (2,40:1) , 2200kbit/s; 23.976fps
Аудио 1: Russian/Dub, AAC, 126kbit/s; 2ch; 48KHz
Аудио 2: English/Original, AAC, 126kbit/s; 2ch; 48KHz
Cубтитры: русские и английские
Главы: Есть
Поддерживаемые устройства: iPad (1,2,3)
Video #1
ID : 1
Format : AVC
Format/Info : Advanced Video Codec
Format profile : [email protected]
Format settings, CABAC : Yes
Format settings, ReFrames : 9 frames
Codec ID : avc1
Codec ID/Info : Advanced Video Coding
Duration : 2h 10mn
Bit rate mode : Variable
Bit rate : 2 200 Kbps
Width : 1 024 pixels
Height : 432 pixels
Display aspect ratio : 2.40:1
Frame rate mode : Variable
Frame rate : 23.976 fps
Minimum frame rate : 23.810 fps
Maximum frame rate : 24.272 fps
Color space : YUV
Chroma subsampling : 4:2:0
Bit depth : 8 bits
Scan type : Progressive
Bits/(Pixel*Frame) : 0.207
Stream size : 2.00 GiB (89%)
Writing library : x264 core 120
Encoding settings : cabac=1 / ref=9 / deblock=1:0:0 / analyse=0x3:0x113 / me=umh / subme=9 / psy=1 / psy_rd=1.00:0.00 / mixed_ref=1 / me_range=32 / chroma_me=1 / trellis=1 / 8x8dct=1 / cqm=0 / deadzone=21,11 / fast_pskip=1 / chroma_qp_offset=-2 / threads=12 / sliced_threads=0 / nr=0 / decimate=1 / interlaced=0 / bluray_compat=0 / constrained_intra=0 / bframes=6 / b_pyramid=2 / b_adapt=2 / b_bias=0 / direct=1 / weightb=1 / open_gop=0 / weightp=2 / keyint=240 / keyint_min=24 / scenecut=40 / intra_refresh=0 / rc_lookahead=40 / rc=2pass / mbtree=1 / bitrate=2200 / ratetol=1.0 / qcomp=0.60 / qpmin=3 / qpmax=69 / qpstep=4 / cplxblur=20.0 / qblur=0.5 / ip_ratio=1.40 / aq=1:1.00
Language : English
Encoded date : UTC 2012-11-10 10:44:40
Tagged date : UTC 2012-11-10 10:45:49
Color primaries : BT.709-5, BT.1361, IEC 61966-2-4, SMPTE RP177
Transfer characteristics : BT.709-5, BT.1361
Matrix coefficients : BT.709-5, BT.1361, IEC 61966-2-4 709, SMPTE RP177
Video #2
ID : 7
Format : JPEG
Codec ID : jpeg
Duration : 2h 10mn
Bit rate mode : Variable
Bit rate : 636 bps
Width : 640 pixels
Height : 270 pixels
Display aspect ratio : 2.40:1
Frame rate mode : Variable
Frame rate : 0.002 fps
Minimum frame rate : 0.001 fps
Maximum frame rate : 0.004 fps
Color space : YUV
Chroma subsampling : 4:2:0
Bit depth : 8 bits
Compression mode : Lossy
Bits/(Pixel*Frame) : 1.840
Stream size : 621 KiB (0%)
Language : English
Encoded date : UTC 2012-11-10 10:46:11
Tagged date : UTC 2012-11-10 10:46:11
Audio #1
ID : 2
Format : AAC
Format/Info : Advanced Audio Codec
Format profile : LC
Codec ID : 40
Duration : 2h 10mn
Bit rate mode : Variable
Bit rate : 126 Kbps
Maximum bit rate : 194 Kbps
Channel(s) : 2 channels
Channel positions : Front: L R
Sampling rate : 48.0 KHz
Compression mode : Lossy
Stream size : 117 MiB (5%)
Language : Russian
Encoded date : UTC 2012-11-10 10:44:40
Tagged date : UTC 2012-11-10 10:45:55
Audio #2
ID : 3
Format : AAC
Format/Info : Advanced Audio Codec
Format profile : LC
Codec ID : 40
Duration : 2h 10mn
Bit rate mode : Variable
Bit rate : 126 Kbps
Maximum bit rate : 202 Kbps
Channel(s) : 2 channels
Channel positions : Front: L R
Sampling rate : 48.0 KHz
Compression mode : Lossy
Stream size : 117 MiB (5%)
Language : English
Encoded date : UTC 2012-11-10 10:44:40
Tagged date : UTC 2012-11-10 10:46:01
Text #1
ID : 4
Format : Timed text
Muxing mode : sbtl
Codec ID : tx3g
Duration : 2h 2mn
Bit rate mode : Variable
Bit rate : 71 bps
Stream size : 64.2 KiB (0%)
Language : Russian
Encoded date : UTC 2012-11-10 10:44:40
Tagged date : UTC 2012-11-10 10:46:01
Text #2
ID : 5
Format : Timed text
Muxing mode : sbtl
Codec ID : tx3g
Duration : 2h 2mn
Bit rate mode : Variable
Bit rate : 50 bps
Stream size : 45.1 KiB (0%)
Language : English
Encoded date : UTC 2012-11-10 10:44:40
Tagged date : UTC 2012-11-10 10:46:01
Text #3
ID : 6
Format : Apple text
Codec ID : text
Duration : 2h 10mn
Bit rate mode : Constant
Bit rate : 0 bps
Stream size : 384 Bytes (0%)
Language : English
Encoded date : UTC 2012-11-10 10:46:01
Tagged date : UTC 2012-11-10 10:46:01
Menu
00:00:00.000 : Chapter 1
00:08:45.983 : Chapter 2
00:18:00.787 : Chapter 3
00:24:13.409 : Chapter 4
00:31:19.960 : Chapter 5
00:39:54.349 : Chapter 6
00:45:38.985 : Chapter 7
00:49:45.690 : Chapter 8
00:58:12.446 : Chapter 9
01:05:40.268 : Chapter 10
01:15:07.042 : Chapter 11
01:21:05.191 : Chapter 12
01:27:23.193 : Chapter 13
01:37:45.857 : Chapter 14
01:43:17.730 : Chapter 15
01:51:29.763 : Chapter 16



Download

Скачать (бесплатно и на максимальной скорости)!

Как скачивать  ·   Что такое torrent (торрент)  ·   Рейтинг и ограничения

Сайт не распространяет и не хранит электронные версии произведений, а лишь предоставляет доступ к создаваемому пользователями каталогу ссылок на торрент-файлы, которые содержат только списки хеш-сумм


 

Theseus


post 23-Июн-2014 21:19

 

Раздача восстановлена 23.06.14
 
Показать сообщения:    
Ответить на тему

Текущее время: 18-Фев 00:26

Часовой пояс: GMT + 3



Вы не можете начинать темы
Вы не можете отвечать на сообщения
Вы не можете редактировать свои сообщения
Вы не можете удалять свои сообщения
Вы не можете голосовать в опросах
Вы не можете прикреплять файлы к сообщениям
Вы не можете скачивать файлы



В начало страницы  •