Loading...
Error
Регистрация  · 
Имя: Пароль:    
 ·  Забыли пароль?
Правила пользования ресурсом

Обладатель VIP статуса на 24 часа: nikola120
стань следующим читай правила
Сегодня идет свободное скачивание без начисления скачанного

(Шансон) Игорь Слуцкий - Дискография - 1998-2011 (9CD), FLAC (image+.cue), lossless

Ответить на тему
 
Автор Сообщение

DED


post 08-Окт-2012 18:35

 

Игорь Слуцкий - Дискография (1998-2011)


Жанр: Шансон
Год издания диска: 1998-2011
Аудиокодек: FLAC (*.flac)
Тип рипа: image+.cue
Битрейт аудио: lossless
Продолжительность: Указана к каждому альбому
Наличие сканов в содержимом раздачи: да
Вроде сердце у меня, там где надо
Есть в наличие друзья и враги
И наверное с любимою рядом
Мог бы плыть я по теченью реки
Но зацепит, но до слова сорвётся
Сердце дрогнет, как листок на ветру
Я баюкаю гитару как солнце
И без этого наверно умру
Оборвётся струна
и в назначенный час
В небе где тишина,
может вспомнят о нас
Оборвётся струна,
но ещё сотни раз
Наши песни сыграв,
кто-то вспомнит о нас...
Певец и композитор Игорь Слуцкий родился 17 июля 1967 года на острове Сахалин.
Детство и юность прошли на Азовском море в г. Мариуполе.
Игорь окончил Мариупольское музыкальное училище по классу фагот. Служил в рядах Советской Армии на Дальнем Востоке музыкантом в военном оркестре.
В Москве с 1990 года. Работал музыкантом, аранжировщиком в коллективах Татьяны Овсиенко, Сергея Чумакова, Вики Цыгановой.
Написанием песен увлекся с детства, и за многие годы оттачивания мастерства написал более 200 песен, среди которых достаточное колличество хитов известных каждому: «Калина красная», «Северный Ветер», «Только любовь» в исполнении Вики Цыгановой, «Белый пепел» в исполнении Александра Маршала, и др.
Песни Игоря Слуцкого исполняют популярные артисты: А. Маршал, А. Буйнов, Н. Басков, М. Круг, А. Кальянов, В. Цыганова, Т. Овсиенко, А. Домогаров и другие.
И. Слуцкий - лауреат фестиваля «Песня года - 2002». Лауреат фестиваля «Достойная песня» «Радио Шансон-СПб.»
В 2004 г . Игорь Слуцкий был удостоен премии «Шансон года» в номинации «Лучший композитор года».
Является постоянным участником телевизионных передач посвященных музыке на главных телевизионных каналах страны.
В процессе написания песен сотрудничает с такими известными поэтами как: В. Пеленягрэ, Е. Муравьев, В. Цыганов, Г. Витке, И. Леснянская.
В настоящее время песни Игоря Слуцкого возглавляют хит-парады многих FM -радиостанций г. Москвы, Санкт-Петербурга и других городов России.
Взято с сайта russianshanson.info
Официальный сайт
АЛЬБОМЫ
Жанр: Шансон
Страна-производитель диска: Швеция
Год издания диска: 1998
Издатель (лейбл): Студия «Союз»
Номер по каталогу: SZCD 0941-98
Страна: Россия
Аудиокодек: FLAC (*.flac)
Тип рипа: image+.cue
Битрейт аудио: lossless
Продолжительность: 43:40
Источник (релизер): Собственный CD
Наличие сканов в содержимом раздачи: да
Трэклист:
01. Я, видать, таким родился (4:34)
02. Между мною и тобой (3:26)
03. Холода (4:22)
04. Водочка (2:54)
05. Поле чудес (3:32)
06. Мент-татарин (4:42)
07. Крокодил (4:12)
08. Акула (4:08)
09. Полтергейст (3:41)
10. TV (4:34)
11. Приходите в мой дом (3:36)
Exact Audio Copy V0.99 prebeta 4 from 23. January 2008
Отчёт EAC об извлечении, выполненном 18. августа 2011, 15:09
Игорь Слуцкий / Я, видать, таким родился
Дисковод: ASUS DRW-1814BLT Adapter: 5 ID: 0
Режим чтения : ДостоверностьИспользование точного потока : ДаОтключение кэша аудио : ДаИспользование указателей C2 : Нет
Коррекция смещения при чтении : 6Способность читать области Lead-in и Lead-out : НетЗаполнение пропущенных сэмплов тишиной : ДаУдаление блоков с тишиной в начале и конце : НетПри вычислениях CRC использовались нулевые сэмплы : ДаИнтерфейс : Установленный внешний ASPI-интерфейс
Выходной формат : Внутренние WAV-операцииФормат сэмплов : 44.100 Гц; 16 бит; стерео
TOC извлечённого CD
Трек | Старт | Длительность | Начальный сектор | Конечный сектор --------------------------------------------------------------------- 1 | 0:00.10 | 4:34.05 | 10 | 20564 2 | 4:34.15 | 3:25.40 | 20565 | 35979 3 | 7:59.55 | 4:21.40 | 35980 | 55594 4 | 12:21.20 | 2:54.15 | 55595 | 68659 5 | 15:15.35 | 3:32.05 | 68660 | 84564 6 | 18:47.40 | 4:41.45 | 84565 | 105684 7 | 23:29.10 | 4:11.45 | 105685 | 124554 8 | 27:40.55 | 4:07.45 | 124555 | 143124 9 | 31:48.25 | 3:40.60 | 143125 | 159684 10 | 35:29.10 | 4:34.22 | 159685 | 180256 11 | 40:03.32 | 3:36.20 | 180257 | 196476
Характеристики диапазона извлечения и сообщения об ошибках
Выбранный диапазон
Имя файла D:\ale2187\Игорь Слуцкий - Я, видать, таким родился.wav
Пиковый уровень 99.9 % Качество диапазона 100.0 % CRC теста 503BDB6B CRC копии 503BDB6B Копирование... OK
Ошибок не произошло
AccurateRip: сводка
Трек 1 нет в базе данныхТрек 2 нет в базе данныхТрек 3 нет в базе данныхТрек 4 нет в базе данныхТрек 5 нет в базе данныхТрек 6 нет в базе данныхТрек 7 нет в базе данныхТрек 8 нет в базе данныхТрек 9 нет в базе данныхТрек 10 нет в базе данныхТрек 11 нет в базе данных
Ни одного трека нет в базе AccurateRip
Конец отчёта
AUDIOCHECKER v2.0 beta (build 457) - by Dester - [email protected]~~~~~~~~~~~~~~~~~~~~~~~~~~~~~~~~~~
Начато: пятница, 19. 08. 2011. - 10:06.56Найдено файлов: 1
1 -===- D:\ale2187\Игорь Слуцкий - Я, видать, таким родился.wav Заключение: этот трек - CDDA с вероятностью 100%
Завершено: пятница, 19. 08. 2011. - 10:10.46 (Время операции: 0:03.49)
Жанр: Шансон
Страна-производитель диска: Россия
Год издания диска: 2001
Издатель (лейбл): "Классик Компани"
Номер по каталогу: CC CD 037/01
Страна: Россия
Аудиокодек: FLAC (*.flac)
Тип рипа: image+.cue
Битрейт аудио: lossless
Продолжительность: 51:51
Источник (релизер): Собственный CD
Наличие сканов в содержимом раздачи: да
Трэклист:
01. Мент-татарин (5:13)
02. Крокодил (4:36)
03. Печкин (Почтальон Печкин) (4:31)
04. Полтергейст (4:10)
05. Когда я уйду (4:00)
06. Ворон (3:31)
07. Здравствуй мать (3:32)
08. Коля Зорин (4:45)
09. Еще не кончилось лето (4:06)
10. Я видать таким Родился (4:37)
11. Белые поленья (3:49)
12. Телевидение (5:02)
Exact Audio Copy V0.99 prebeta 4 from 23. January 2008
Отчёт EAC об извлечении, выполненном 19. августа 2011, 10:36
Игорь Слуцкий / Поговорим по душам...
Дисковод: ASUS DRW-1814BLT Adapter: 5 ID: 0
Режим чтения : ДостоверностьИспользование точного потока : ДаОтключение кэша аудио : ДаИспользование указателей C2 : Нет
Коррекция смещения при чтении : 6Способность читать области Lead-in и Lead-out : НетЗаполнение пропущенных сэмплов тишиной : ДаУдаление блоков с тишиной в начале и конце : НетПри вычислениях CRC использовались нулевые сэмплы : ДаИнтерфейс : Установленный внешний ASPI-интерфейс
Выходной формат : Внутренние WAV-операцииФормат сэмплов : 44.100 Гц; 16 бит; стерео
TOC извлечённого CD
Трек | Старт | Длительность | Начальный сектор | Конечный сектор --------------------------------------------------------------------- 1 | 0:00.00 | 5:12.62 | 0 | 23461 2 | 5:12.62 | 4:35.65 | 23462 | 44151 3 | 9:48.52 | 4:31.05 | 44152 | 64481 4 | 14:19.57 | 4:10.01 | 64482 | 83232 5 | 18:29.58 | 3:59.64 | 83233 | 101221 6 | 22:29.47 | 3:31.19 | 101222 | 117065 7 | 26:00.66 | 3:31.40 | 117066 | 132930 8 | 29:32.31 | 4:44.56 | 132931 | 154286 9 | 34:17.12 | 4:05.53 | 154287 | 172714 10 | 38:22.65 | 4:37.15 | 172715 | 193504 11 | 43:00.05 | 3:48.46 | 193505 | 210650 12 | 46:48.51 | 5:02.27 | 210651 | 233327
Характеристики диапазона извлечения и сообщения об ошибках
Выбранный диапазон
Имя файла D:\ale2187\Игорь Слуцкий - Поговорим по душам....wav
Пиковый уровень 99.9 % Качество диапазона 100.0 % CRC теста 89A0B35A CRC копии 89A0B35A Копирование... OK
Ошибок не произошло
AccurateRip: сводка
Трек 1 точность не определена (достоверность 1) [AEC0EB40], AccurateRip вернул [528FC9A3]Трек 2 точность не определена (достоверность 1) [E71CF0CC], AccurateRip вернул [D29B3062]Трек 3 точность не определена (достоверность 1) [7302AAB4], AccurateRip вернул [4C859E30]Трек 4 точность не определена (достоверность 1) [9961A285], AccurateRip вернул [FFE8F21C]Трек 5 точность не определена (достоверность 1) [15E562FC], AccurateRip вернул [4F8EB6B2]Трек 6 точность не определена (достоверность 1) [6298005F], AccurateRip вернул [E5DC104F]Трек 7 точность не определена (достоверность 1) [528B3610], AccurateRip вернул [CD7D3107]Трек 8 точность не определена (достоверность 1) [C1E57B1F], AccurateRip вернул [958CD4AB]Трек 9 точность не определена (достоверность 1) [D2DF3858], AccurateRip вернул [5EB6CE39]Трек 10 точность не определена (достоверность 1) [A9B02DB8], AccurateRip вернул [3359E52F]Трек 11 точность не определена (достоверность 1) [119C9CE3], AccurateRip вернул [915FA48D]Трек 12 точность не определена (достоверность 1) [7EB88BD8], AccurateRip вернул [BEFB21C7]
Ни один трек не прошёл проверки на точностьВ вашей базе может быть иной вариант штамповки диска
Конец отчёта
AUDIOCHECKER v2.0 beta (build 457) - by Dester - [email protected]~~~~~~~~~~~~~~~~~~~~~~~~~~~~~~~~~~
Начато: пятница, 19. 08. 2011. - 10:44.39Найдено файлов: 1
1 -===- D:\ale2187\Игорь Слуцкий - Поговорим по душам....wav Заключение: этот трек - CDDA с вероятностью 100%
Завершено: пятница, 19. 08. 2011. - 10:49.30 (Время операции: 0:04.50)
Жанр: Шансон
Страна-производитель диска: Россия
Год издания диска: 2001
Издатель (лейбл): «S.T.M.-Records»
Номер по каталогу: CD 046/01
Страна: Россия
Аудиокодек: FLAC (*.flac)
Тип рипа: image+.cue
Битрейт аудио: lossless
Продолжительность: 43:28
Источник (релизер): Собственный CD
Наличие сканов в содержимом раздачи: да
Трэклист:
01. Приходите в мой дом (3:40)
02. Постой душа (4:15)
03. Холода (4:26)
04. Кони кони (5:20)
05. Калина красная (4:22)
06. Позади (3:25)
07. Водочка (3:00)
08. Акула (4:13)
09. Между мной и тобой (3:31)
10. Поле чудес (3:38)
11. Струны (3:37)
Exact Audio Copy V0.99 prebeta 4 from 23. January 2008
Отчёт EAC об извлечении, выполненном 19. августа 2011, 11:11
Игорь Слуцкий / Постой душа
Дисковод: ASUS DRW-1814BLT Adapter: 5 ID: 0
Режим чтения : ДостоверностьИспользование точного потока : ДаОтключение кэша аудио : ДаИспользование указателей C2 : Нет
Коррекция смещения при чтении : 6Способность читать области Lead-in и Lead-out : НетЗаполнение пропущенных сэмплов тишиной : ДаУдаление блоков с тишиной в начале и конце : НетПри вычислениях CRC использовались нулевые сэмплы : ДаИнтерфейс : Установленный внешний ASPI-интерфейс
Выходной формат : Внутренние WAV-операцииФормат сэмплов : 44.100 Гц; 16 бит; стерео
TOC извлечённого CD
Трек | Старт | Длительность | Начальный сектор | Конечный сектор --------------------------------------------------------------------- 1 | 0:00.00 | 3:40.07 | 0 | 16506 2 | 3:40.07 | 4:14.46 | 16507 | 35602 3 | 7:54.53 | 4:26.01 | 35603 | 55553 4 | 12:20.54 | 5:20.37 | 55554 | 79590 5 | 17:41.16 | 4:21.60 | 79591 | 99225 6 | 22:03.01 | 3:25.18 | 99226 | 114618 7 | 25:28.19 | 3:00.15 | 114619 | 128133 8 | 28:28.34 | 4:13.30 | 128134 | 147138 9 | 32:41.64 | 3:30.52 | 147139 | 162940 10 | 36:12.41 | 3:38.05 | 162941 | 179295 11 | 39:50.46 | 3:37.37 | 179296 | 195607
Характеристики диапазона извлечения и сообщения об ошибках
Выбранный диапазон
Имя файла D:\ale2187\Игорь Слуцкий - Постой душа.wav
Пиковый уровень 97.7 % Качество диапазона 100.0 % CRC теста DE2B922E CRC копии DE2B922E Копирование... OK
Ошибок не произошло
AccurateRip: сводка
Трек 1 нет в базе данныхТрек 2 нет в базе данныхТрек 3 нет в базе данныхТрек 4 нет в базе данныхТрек 5 нет в базе данныхТрек 6 нет в базе данныхТрек 7 нет в базе данныхТрек 8 нет в базе данныхТрек 9 нет в базе данныхТрек 10 нет в базе данныхТрек 11 нет в базе данных
Ни одного трека нет в базе AccurateRip
Конец отчёта
AUDIOCHECKER v2.0 beta (build 457) - by Dester - [email protected]~~~~~~~~~~~~~~~~~~~~~~~~~~~~~~~~~~
Начато: пятница, 19. 08. 2011. - 11:14.09Найдено файлов: 1
1 -===- D:\ale2187\Игорь Слуцкий - Постой душа.wav Заключение: этот трек - CDDA с вероятностью 100%
Завершено: пятница, 19. 08. 2011. - 11:17.17 (Время операции: 0:03.08)
Жанр: Шансон
Страна-производитель диска: Украина
Год издания диска: 2002
Издатель (лейбл): Artur Music
Номер по каталогу: CD 074
Страна: Россия
Аудиокодек: FLAC (*.flac)
Тип рипа: image+.cue
Битрейт аудио: lossless
Продолжительность: 40:32
Источник (релизер): Собственный CD
Наличие сканов в содержимом раздачи: да
Трэклист:
01. Когда, я навсегда вернусь (4:10)
02. Маленький бродяга (3:54)
03. Не могу по-другому (4:39)
04. Шоферская (2:43)
05. Холода (New Version) (4:06)
06. Постой душа (New Version) (4:05)
07. Струны (3:39)
08. Кони (5:20)
09. Калина красная (4:21)
10. Приходите в мой дом (3:36)
Exact Audio Copy V0.99 prebeta 4 from 23. January 2008
Отчёт EAC об извлечении, выполненном 19. августа 2011, 11:55
Игорь Слуцкий / Я вернусь...
Дисковод: ASUS DRW-1814BLT Adapter: 5 ID: 0
Режим чтения : ДостоверностьИспользование точного потока : ДаОтключение кэша аудио : ДаИспользование указателей C2 : Нет
Коррекция смещения при чтении : 6Способность читать области Lead-in и Lead-out : НетЗаполнение пропущенных сэмплов тишиной : ДаУдаление блоков с тишиной в начале и конце : НетПри вычислениях CRC использовались нулевые сэмплы : ДаИнтерфейс : Установленный внешний ASPI-интерфейс
Выходной формат : Внутренние WAV-операцииФормат сэмплов : 44.100 Гц; 16 бит; стерео
TOC извлечённого CD
Трек | Старт | Длительность | Начальный сектор | Конечный сектор --------------------------------------------------------------------- 1 | 0:00.00 | 4:09.72 | 0 | 18746 2 | 4:09.72 | 3:53.70 | 18747 | 36291 3 | 8:03.67 | 4:38.64 | 36292 | 57205 4 | 12:42.56 | 2:42.44 | 57206 | 69399 5 | 15:25.25 | 4:05.57 | 69400 | 87831 6 | 19:31.07 | 4:05.04 | 87832 | 106210 7 | 23:36.11 | 3:39.26 | 106211 | 122661 8 | 27:15.37 | 5:19.41 | 122662 | 146627 9 | 32:35.03 | 4:20.64 | 146628 | 166191 10 | 36:55.67 | 3:36.27 | 166192 | 182418
Характеристики диапазона извлечения и сообщения об ошибках
Выбранный диапазон
Имя файла D:\ale2187\Игорь Слуцкий - Я вернусь....wav
Пиковый уровень 98.0 % Качество диапазона 100.0 % CRC теста 8A1B2B4D CRC копии 8A1B2B4D Копирование... OK
Ошибок не произошло
AccurateRip: сводка
Трек 1 нет в базе данныхТрек 2 нет в базе данныхТрек 3 нет в базе данныхТрек 4 нет в базе данныхТрек 5 нет в базе данныхТрек 6 нет в базе данныхТрек 7 нет в базе данныхТрек 8 нет в базе данныхТрек 9 нет в базе данныхТрек 10 нет в базе данных
Ни одного трека нет в базе AccurateRip
Конец отчёта
AUDIOCHECKER v2.0 beta (build 457) - by Dester - [email protected]~~~~~~~~~~~~~~~~~~~~~~~~~~~~~~~~~~
Начато: пятница, 19. 08. 2011. - 17:06.23Найдено файлов: 1
1 -===- D:\ale2187\Игорь Слуцкий - Я вернусь....wav Заключение: этот трек - CDDA с вероятностью 99%
Завершено: пятница, 19. 08. 2011. - 17:09.43 (Время операции: 0:03.19)
Жанр: Шансон
Страна-производитель диска: Россия
Год издания диска: 2003
Издатель (лейбл): "Классик Компани"
Номер по каталогу: СС CD 29/03
Страна: Россия
Аудиокодек: FLAC (*.flac)
Тип рипа: image+.cue
Битрейт аудио: lossless
Продолжительность: 56:14
Источник (релизер): Собственный CD
Наличие сканов в содержимом раздачи: да
Трэклист:
01. Три дня (3:49)
02. Оборвётся струна (3:58)
03. Тишина Матросская (4:00)
04. Вольный ветер (4:26)
05. Казачья (5:02)
06. Не боли душа (3:24)
07. Два ключа (4:16)
08. Магадан (4:34)
09. А над храмом кресты (4:02)
10. Человек не любивший меня (2:50)
11. Зеркало заднего вида (3:38)
12. 101 песня про Одессу (4:06)
13. Слёзы России (4:03)
14. Сыну Егору (4:07)
Exact Audio Copy V0.99 prebeta 4 from 23. January 2008
Отчёт EAC об извлечении, выполненном 19. августа 2011, 17:35
Игорь Слуцкий / Если тишина
Дисковод: ASUS DRW-1814BLT Adapter: 5 ID: 0
Режим чтения : ДостоверностьИспользование точного потока : ДаОтключение кэша аудио : ДаИспользование указателей C2 : Нет
Коррекция смещения при чтении : 6Способность читать области Lead-in и Lead-out : НетЗаполнение пропущенных сэмплов тишиной : ДаУдаление блоков с тишиной в начале и конце : НетПри вычислениях CRC использовались нулевые сэмплы : ДаИнтерфейс : Установленный внешний ASPI-интерфейс
Выходной формат : Внутренние WAV-операцииФормат сэмплов : 44.100 Гц; 16 бит; стерео
TOC извлечённого CD
Трек | Старт | Длительность | Начальный сектор | Конечный сектор --------------------------------------------------------------------- 1 | 0:00.00 | 3:49.11 | 0 | 17185 2 | 3:49.11 | 3:58.15 | 17186 | 35050 3 | 7:47.26 | 3:59.67 | 35051 | 53042 4 | 11:47.18 | 4:25.45 | 53043 | 72962 5 | 16:12.63 | 5:01.52 | 72963 | 95589 6 | 21:14.40 | 3:24.06 | 95590 | 110895 7 | 24:38.46 | 4:15.54 | 110896 | 130074 8 | 28:54.25 | 4:33.49 | 130075 | 150598 9 | 33:27.74 | 4:02.04 | 150599 | 168752 10 | 37:30.03 | 2:49.42 | 168753 | 181469 11 | 40:19.45 | 3:38.17 | 181470 | 197836 12 | 43:57.62 | 4:06.33 | 197837 | 216319 13 | 48:04.20 | 4:02.69 | 216320 | 234538 14 | 52:07.14 | 4:06.68 | 234539 | 253056
Характеристики диапазона извлечения и сообщения об ошибках
Выбранный диапазон
Имя файла D:\ale2187\Игорь Слуцкий - Если тишина.wav
Пиковый уровень 98.9 % Качество диапазона 99.9 % CRC теста 0C0C87C0 CRC копии 0C0C87C0 Копирование... OK
Ошибок не произошло
AccurateRip: сводка
Трек 1 точность не определена (достоверность 1) [75D60F53], AccurateRip вернул [DA388E9E]Трек 2 точность не определена (достоверность 1) [BE8B22BF], AccurateRip вернул [923022F3]Трек 3 точность не определена (достоверность 1) [88E3B25F], AccurateRip вернул [2D14F748]Трек 4 точность не определена (достоверность 1) [E4EA0FE9], AccurateRip вернул [144EFB9D]Трек 5 точность не определена (достоверность 1) [CA5910D9], AccurateRip вернул [AD44BE54]Трек 6 точность не определена (достоверность 1) [0669E93D], AccurateRip вернул [229BCC07]Трек 7 точность не определена (достоверность 1) [E561265D], AccurateRip вернул [6B01AD9E]Трек 8 точность не определена (достоверность 1) [5A13D389], AccurateRip вернул [4FF4216A]Трек 9 точность не определена (достоверность 1) [4F81476C], AccurateRip вернул [AFAD14C0]Трек 10 точность не определена (достоверность 1) [9F00E40F], AccurateRip вернул [F72081F7]Трек 11 точность не определена (достоверность 1) [00810653], AccurateRip вернул [9FC0F5E2]Трек 12 точность не определена (достоверность 1) [175AB410], AccurateRip вернул [56D6CA68]Трек 13 точность не определена (достоверность 1) [8BE99335], AccurateRip вернул [30C45DB0]Трек 14 точность не определена (достоверность 1) [43740895], AccurateRip вернул [93FBD4D5]
Ни один трек не прошёл проверки на точностьВ вашей базе может быть иной вариант штамповки диска
Конец отчёта
AUDIOCHECKER v2.0 beta (build 457) - by Dester - [email protected]~~~~~~~~~~~~~~~~~~~~~~~~~~~~~~~~~~
Начато: пятница, 19. 08. 2011. - 17:36.31Найдено файлов: 1
1 -===- D:\ale2187\Игорь Слуцкий - Если тишина.wav Заключение: этот трек - CDDA с вероятностью 100%
Завершено: пятница, 19. 08. 2011. - 17:41.31 (Время операции: 0:04.59)
Жанр: Шансон
Страна-производитель диска: Россия
Год издания диска: 2004
Издатель (лейбл): "Квадро-диск"
Номер по каталогу: KTL04-028
Страна: Россия
Аудиокодек: FLAC (*.flac)
Тип рипа: image+.cue
Битрейт аудио: lossless
Продолжительность: 48:58
Источник (релизер): Собственный CD
Наличие сканов в содержимом раздачи: да
Трэклист:
01. Пой, гитара (3:54)
02. Кукушки (4:06)
03. Хулиган. Босяк. Карманник (3:40)
04. Туда (4:07)
05. Две кобылки (4:00)
06. Главное жизнь (4:45)
07. Коля Зорин 2 (4:00)
08. Свадьба (3:32)
09. Запорошены поля (3:58)
10. За волю (4:07)
11. Отец (4:15)
12. Билет на самолет (4:35)
Exact Audio Copy V0.99 prebeta 4 from 23. January 2008
Отчёт EAC об извлечении, выполненном 19. августа 2011, 18:10
Игорь Слуцкий / Кукушки
Дисковод: ASUS DRW-1814BLT Adapter: 5 ID: 0
Режим чтения : ДостоверностьИспользование точного потока : ДаОтключение кэша аудио : ДаИспользование указателей C2 : Нет
Коррекция смещения при чтении : 6Способность читать области Lead-in и Lead-out : НетЗаполнение пропущенных сэмплов тишиной : ДаУдаление блоков с тишиной в начале и конце : НетПри вычислениях CRC использовались нулевые сэмплы : ДаИнтерфейс : Установленный внешний ASPI-интерфейс
Выходной формат : Внутренние WAV-операцииФормат сэмплов : 44.100 Гц; 16 бит; стерео
TOC извлечённого CD
Трек | Старт | Длительность | Начальный сектор | Конечный сектор --------------------------------------------------------------------- 1 | 0:00.00 | 3:54.09 | 0 | 17558 2 | 3:54.09 | 4:05.49 | 17559 | 35982 3 | 7:59.58 | 3:39.69 | 35983 | 52476 4 | 11:39.52 | 4:06.72 | 52477 | 70998 5 | 15:46.49 | 3:59.62 | 70999 | 88985 6 | 19:46.36 | 4:45.19 | 88986 | 110379 7 | 24:31.55 | 3:59.51 | 110380 | 128355 8 | 28:31.31 | 3:31.48 | 128356 | 144228 9 | 32:03.04 | 3:57.64 | 144229 | 162067 10 | 36:00.68 | 4:06.63 | 162068 | 180580 11 | 40:07.56 | 4:15.22 | 180581 | 199727 12 | 44:23.03 | 4:34.55 | 199728 | 220332
Характеристики диапазона извлечения и сообщения об ошибках
Выбранный диапазон
Имя файла D:\ale2187\Игорь Слуцкий - Кукушки.wav
Пиковый уровень 98.8 % Качество диапазона 99.9 % CRC теста 82AEB017 CRC копии 82AEB017 Копирование... OK
Ошибок не произошло
AccurateRip: сводка
Трек 1 нет в базе данныхТрек 2 нет в базе данныхТрек 3 нет в базе данныхТрек 4 нет в базе данныхТрек 5 нет в базе данныхТрек 6 нет в базе данныхТрек 7 нет в базе данныхТрек 8 нет в базе данныхТрек 9 нет в базе данныхТрек 10 нет в базе данныхТрек 11 нет в базе данныхТрек 12 нет в базе данных
Ни одного трека нет в базе AccurateRip
AUDIOCHECKER v2.0 beta (build 457) - by Dester - [email protected]~~~~~~~~~~~~~~~~~~~~~~~~~~~~~~~~~~
Начато: пятница, 19. 08. 2011. - 18:11.39Найдено файлов: 1
1 -===- D:\ale2187\Игорь Слуцкий - Кукушки.wav Заключение: этот трек - CDDA с вероятностью 100%
Завершено: пятница, 19. 08. 2011. - 18:16.00 (Время операции: 0:04.21)
Жанр: Шансон
Страна-производитель диска: Россия
Год издания диска: 2005
Издатель (лейбл): КВАДРО-ДИСК
Номер по каталогу: KTL05-063
Страна: Россия
Аудиокодек: FLAC (*.flac)
Тип рипа: image+.cue
Битрейт аудио: lossless
Продолжительность: 42:35
Источник (релизер): Собственный CD
Наличие сканов в содержимом раздачи: да
Трэклист:
01. За Победу! (3:42)
02. Родники (4:18)
03. Темно вокруг (4:24)
04. Дело было в разведке (3:19)
05. Морская песня (4:13)
06. Полевая жена (4:34)
07. Дядя Лёня (4:12)
08. А вы, дорогая (5:18)
09. Держись, Алеша (4:10)
10. Война не мамка (4:27)
Exact Audio Copy V0.99 prebeta 4 from 23. January 2008
Отчёт EAC об извлечении, выполненном 19. августа 2011, 18:46
Игорь Слуцкий / За Победу!
Дисковод: ASUS DRW-1814BLT Adapter: 5 ID: 0
Режим чтения : ДостоверностьИспользование точного потока : ДаОтключение кэша аудио : ДаИспользование указателей C2 : Нет
Коррекция смещения при чтении : 6Способность читать области Lead-in и Lead-out : НетЗаполнение пропущенных сэмплов тишиной : ДаУдаление блоков с тишиной в начале и конце : НетПри вычислениях CRC использовались нулевые сэмплы : ДаИнтерфейс : Установленный внешний ASPI-интерфейс
Выходной формат : Внутренние WAV-операцииФормат сэмплов : 44.100 Гц; 16 бит; стерео
TOC извлечённого CD
Трек | Старт | Длительность | Начальный сектор | Конечный сектор --------------------------------------------------------------------- 1 | 0:00.00 | 3:41.48 | 0 | 16622 2 | 3:41.48 | 4:17.58 | 16623 | 35955 3 | 7:59.31 | 4:23.52 | 35956 | 55732 4 | 12:23.08 | 3:18.69 | 55733 | 70651 5 | 15:42.02 | 4:12.39 | 70652 | 89590 6 | 19:54.41 | 4:33.53 | 89591 | 110118 7 | 24:28.19 | 4:11.74 | 110119 | 129017 8 | 28:40.18 | 5:18.31 | 129018 | 152898 9 | 33:58.49 | 4:10.07 | 152899 | 171655 10 | 38:08.56 | 4:26.55 | 171656 | 191660
Характеристики диапазона извлечения и сообщения об ошибках
Выбранный диапазон
Имя файла D:\ale2187\Игорь Слуцкий - За Победу!.wav
Пиковый уровень 96.6 % Качество диапазона 100.0 % CRC теста C55164EC CRC копии C55164EC Копирование... OK
Ошибок не произошло
AccurateRip: сводка
Трек 1 нет в базе данныхТрек 2 нет в базе данныхТрек 3 нет в базе данныхТрек 4 нет в базе данныхТрек 5 нет в базе данныхТрек 6 нет в базе данныхТрек 7 нет в базе данныхТрек 8 нет в базе данныхТрек 9 нет в базе данныхТрек 10 нет в базе данных
Ни одного трека нет в базе AccurateRip
Конец отчёта
AUDIOCHECKER v2.0 beta (build 457) - by Dester - [email protected]~~~~~~~~~~~~~~~~~~~~~~~~~~~~~~~~~~
Начато: пятница, 19. 08. 2011. - 18:46.44Найдено файлов: 1
1 -===- D:\ale2187\Игорь Слуцкий - За Победу!.wav Заключение: этот трек - CDDA с вероятностью 100%
Завершено: пятница, 19. 08. 2011. - 18:50.30 (Время операции: 0:03.46)
Жанр: Шансон
Страна-производитель диска: Россия
Год издания диска: 2008
Издатель (лейбл): Квадро-диск
Номер по каталогу: KTL08-930
Страна: Россия
Аудиокодек: FLAC (*.flac)
Тип рипа: image+.cue
Битрейт аудио: lossless
Продолжительность: 46:29
Источник (релизер): Собственный CD
Наличие сканов в содержимом раздачи: да
Трэклист:
01. Не разменять себя по мелочам (4:42)
02. Рябина (3:36)
03. Думы мои думы (3:51)
04. Не жалейте о прожитом (3:55)
05. Золотые клены (3:49)
06. Сахалин (4:06)
07. Задушевная (3:47)
08. Ты только одна (3:45)
09. Под крылом столица (3:38)
10. Помни только хорошее (4:03)
11. Время покажет (3:48)
12. Приходите в мой дом (New версия) (3:29)
Exact Audio Copy V0.99 prebeta 4 from 23. January 2008
Отчёт EAC об извлечении, выполненном 19. августа 2011, 19:15
Игорь Слуцкий / Думы мои думы
Дисковод: ASUS DRW-1814BLT Adapter: 5 ID: 0
Режим чтения : ДостоверностьИспользование точного потока : ДаОтключение кэша аудио : ДаИспользование указателей C2 : Нет
Коррекция смещения при чтении : 6Способность читать области Lead-in и Lead-out : НетЗаполнение пропущенных сэмплов тишиной : ДаУдаление блоков с тишиной в начале и конце : НетПри вычислениях CRC использовались нулевые сэмплы : ДаИнтерфейс : Установленный внешний ASPI-интерфейс
Выходной формат : Внутренние WAV-операцииФормат сэмплов : 44.100 Гц; 16 бит; стерео
TOC извлечённого CD
Трек | Старт | Длительность | Начальный сектор | Конечный сектор --------------------------------------------------------------------- 1 | 0:00.00 | 4:42.10 | 0 | 21159 2 | 4:42.10 | 3:35.43 | 21160 | 37327 3 | 8:17.53 | 3:50.71 | 37328 | 54648 4 | 12:08.49 | 3:54.66 | 54649 | 72264 5 | 16:03.40 | 3:49.08 | 72265 | 89447 6 | 19:52.48 | 4:06.06 | 89448 | 107903 7 | 23:58.54 | 3:47.28 | 107904 | 124956 8 | 27:46.07 | 3:44.40 | 124957 | 141796 9 | 31:30.47 | 3:38.25 | 141797 | 158171 10 | 35:08.72 | 4:02.62 | 158172 | 176383 11 | 39:11.59 | 3:48.19 | 176384 | 193502 12 | 43:00.03 | 3:28.53 | 193503 | 209155
Характеристики диапазона извлечения и сообщения об ошибках
Выбранный диапазон
Имя файла D:\ale2187\Игорь Слуцкий - Думы мои думы.wav
Пиковый уровень 98.8 % Качество диапазона 100.0 % CRC теста F648C740 CRC копии F648C740 Копирование... OK
Ошибок не произошло
AccurateRip: сводка
Трек 1 точное извлечение (доверие 2) [64B99A36]Трек 2 точное извлечение (доверие 2) [E79F29F2]Трек 3 точное извлечение (доверие 2) [DE265F1E]Трек 4 точное извлечение (доверие 2) [0B873F9A]Трек 5 точное извлечение (доверие 2) [F075EA79]Трек 6 точное извлечение (доверие 2) [B017B053]Трек 7 точное извлечение (доверие 2) [3D2B8A74]Трек 8 точное извлечение (доверие 2) [70E5B349]Трек 9 точное извлечение (доверие 2) [B1E5900E]Трек 10 точное извлечение (доверие 2) [31312E24]Трек 11 точное извлечение (доверие 2) [9F2E6C1F]Трек 12 точное извлечение (доверие 2) [4A3DAB1D]
Все треки извлечены точно
Конец отчёта
AUDIOCHECKER v2.0 beta (build 457) - by Dester - [email protected]~~~~~~~~~~~~~~~~~~~~~~~~~~~~~~~~~~
Начато: пятница, 19. 08. 2011. - 19:19.44Найдено файлов: 1
1 -===- D:\ale2187\Игорь Слуцкий - Думы мои думы.wav Заключение: этот трек - CDDA с вероятностью 99%
Завершено: пятница, 19. 08. 2011. - 19:23.26 (Время операции: 0:03.42)
Download

Скачать (бесплатно и на максимальной скорости)!

Как скачивать  ·   Что такое torrent (торрент)  ·   Рейтинг и ограничения

Сайт не распространяет и не хранит электронные версии произведений, а лишь предоставляет доступ к создаваемому пользователями каталогу ссылок на торрент-файлы, которые содержат только списки хеш-сумм


 

DED


post 08-Окт-2012 19:08

 

СБОРНИК
Жанр: Шансон
Страна-производитель диска: Россия
Год издания диска: 2011
Издатель (лейбл): "КЛАССИК КОМПАНИ", КВАДРО-ДИСК
Номер по каталогу: CCCD43/11
Страна: Россия
Аудиокодек: FLAC (*.flac)
Тип рипа: image+.cue
Битрейт аудио: lossless
Продолжительность: 01:17:08
Источник (релизер): Собственный CD
Наличие сканов в содержимом раздачи: да
Трэклист:
01. Не жалейте о прожитом (3:52)
02. Оборвётся струна (3:58)
03. Задушевная (3:46)
04. Туда (4:06)
05. Два ключа (4:16)
06. Не боли, душа (3:22)
07. Человек, не любивший меня (2:47)
08. Зеркало заднего вида (3:35)
09. Я, видать, таким родился (4:34)
10. За волю (4:07)
11. Не разменять себя по мелочам (4:42)
12. 101 песня про Одессу (4:03)
13. Три дня (3:46)
14. Билет на самолёт (4:34)
15. Главное-жизнь (4:45)
16. Белые поленья (3:45)
17. Думы мои думы (3:48)
18. Казачья (4:59)
19. Вольный ветер (4:23)
Exact Audio Copy V0.99 prebeta 4 from 23. January 2008
Отчёт EAC об извлечении, выполненном 19. августа 2011, 20:01
Игорь Слуцкий / Избранное. Лучшее. От души.
Дисковод: ASUS DRW-1814BLT Adapter: 5 ID: 0
Режим чтения : ДостоверностьИспользование точного потока : ДаОтключение кэша аудио : ДаИспользование указателей C2 : Нет
Коррекция смещения при чтении : 6Способность читать области Lead-in и Lead-out : НетЗаполнение пропущенных сэмплов тишиной : ДаУдаление блоков с тишиной в начале и конце : НетПри вычислениях CRC использовались нулевые сэмплы : ДаИнтерфейс : Установленный внешний ASPI-интерфейс
Выходной формат : Внутренние WAV-операцииФормат сэмплов : 44.100 Гц; 16 бит; стерео
TOC извлечённого CD
Трек | Старт | Длительность | Начальный сектор | Конечный сектор --------------------------------------------------------------------- 1 | 0:00.00 | 3:51.52 | 0 | 17376 2 | 3:51.52 | 3:58.15 | 17377 | 35241 3 | 7:49.67 | 3:46.36 | 35242 | 52227 4 | 11:36.28 | 4:06.08 | 52228 | 70685 5 | 15:42.36 | 4:15.54 | 70686 | 89864 6 | 19:58.15 | 3:21.73 | 89865 | 105012 7 | 23:20.13 | 2:47.02 | 105013 | 117539 8 | 26:07.15 | 3:35.17 | 117540 | 133681 9 | 29:42.32 | 4:34.25 | 133682 | 154256 10 | 34:16.57 | 4:06.42 | 154257 | 172748 11 | 38:23.24 | 4:42.10 | 172749 | 193908 12 | 43:05.34 | 4:03.25 | 193909 | 212158 13 | 47:08.59 | 3:45.55 | 212159 | 229088 14 | 50:54.39 | 4:33.42 | 229089 | 249605 15 | 55:28.06 | 4:45.21 | 249606 | 271001 16 | 60:13.27 | 3:45.15 | 271002 | 287891 17 | 63:58.42 | 3:47.64 | 287892 | 304980 18 | 67:46.31 | 4:58.43 | 304981 | 327373 19 | 72:44.74 | 4:23.12 | 327374 | 347110
Характеристики диапазона извлечения и сообщения об ошибках
Выбранный диапазон
Имя файла D:\ale2187\Игорь Слуцкий - Избранное. Лучшее. От души..wav
Пиковый уровень 100.0 % Качество диапазона 100.0 % CRC теста 1AFFB737 CRC копии 1AFFB737 Копирование... OK
Ошибок не произошло
AccurateRip: сводка
Трек 1 нет в базе данныхТрек 2 нет в базе данныхТрек 3 нет в базе данныхТрек 4 нет в базе данныхТрек 5 нет в базе данныхТрек 6 нет в базе данныхТрек 7 нет в базе данныхТрек 8 нет в базе данныхТрек 9 нет в базе данныхТрек 10 нет в базе данныхТрек 11 нет в базе данныхТрек 12 нет в базе данныхТрек 13 нет в базе данныхТрек 14 нет в базе данныхТрек 15 нет в базе данныхТрек 16 нет в базе данныхТрек 17 нет в базе данныхТрек 18 нет в базе данныхТрек 19 нет в базе данных
Ни одного трека нет в базе AccurateRip
Конец отчёта
AUDIOCHECKER v2.0 beta (build 457) - by Dester - [email protected]~~~~~~~~~~~~~~~~~~~~~~~~~~~~~~~~~~
Начато: пятница, 19. 08. 2011. - 20:03.00Найдено файлов: 1
1 -===- D:\ale2187\Игорь Слуцкий - Избранное. Лучшее. От души..wav Заключение: этот трек - CDDA с вероятностью 100%
Завершено: пятница, 19. 08. 2011. - 20:10.20 (Время операции: 0:07.20)
ВНИМАНИЕ: Здесь не вошедшее в оформление релиза из-за лимита на количество знаков. В раздаче все эти файлы есть.
 
Показать сообщения:    
Ответить на тему

Текущее время: 23-Июн 14:16

Часовой пояс: GMT + 3



Вы не можете начинать темы
Вы не можете отвечать на сообщения
Вы не можете редактировать свои сообщения
Вы не можете удалять свои сообщения
Вы не можете голосовать в опросах
Вы не можете прикреплять файлы к сообщениям
Вы не можете скачивать файлы



В начало страницы  •