Loading...
Error
Регистрация  · 
Имя: Пароль:    
 ·  Забыли пароль?
Правила пользования ресурсом

До Нового года осталось:
Обладатель VIP статуса на 24 часа: Lidij5
стань следующим читай правила
Сегодня идет свободное скачивание без начисления скачанного

Michael Jackson - Bad (25th Anniversary) Deluxe Edition - 1987 / 2012, FLAC (tracks), lossless (Pop, R&B, Funk, Dance, Rock, Dubstep)

Ответить на тему
 
Автор Сообщение

cataman


post 19-Сен-2012 20:08

 

Michael Jackson - Bad (1988)
25th Anniversary Deluxe Edition, 2012


Жанр: Pop, R&B, Funk, Dance, Rock, Dubstep
Страна-производитель диска: Europe
Год издания: 1978 / 2012
Издатель: Epic, Legacy
Номер по каталогу: 88691999702
Аудиокодек: FLAC (*.flac)
Тип рипа: tracks + cue
Битрейт аудио: lossless
Общая продолжительность:[/b] 01:47:56
Наличие сканов: нет


Данный релиз состоит из первых двух CD-дисков из нового Коллекционного издания в формате Бокс Сета, состоящего из 3-х СD-дисков и 1-го DVD.

Диск 1 - ремастеринговые хиты основного альбома (Leave Me Alone добавлена как бонус трек).

Диск 2 - 13 редких, ранее не изданных треков - демо версии, которые Майкл записывал в своей студии на Хэйвенхёст Авеню в Энчино, Калифорния (Hayvenhurst Avenue - Encino, California). Сюда же добавлены 2 ранее не изданных трека из расширенного издания альбома BAD 2001 года, - французская версия классической I Just Can’t Stop Loving You, мощнейшая версия Speed Demon, ремикс Ниро (Nero) и новый заглавный ремикс трека Bad (наэлектризованная совместная работа Питбуля (Pitbull) и Голландца ДиДжея Афроджека (Dutch DJ Afrojack).

Третий компакт-диск и DVD - не издававшиеся до этого видео и звуковые треки великолепного живого выступления Майкла Джексона 16 июля 1988 года на стадионе Уэмбли.

Как только появится третий CD в losseless, сразу дополню релиз. Приятного прослушивания!




Содержание:


Треклист:
01. Bad (4:08)
02. The Way You Make Me Feel (4:59)
03. Speed Demon (4:05)
04. Liberian Girl (3:50)
05. Just Good Friends (4:08)
06. Another Part Of Me (3:55)
07. Man In The Mirror (5:19)
08. I Just Can't Stop Loving You (4:11)
09. Dirty Diana (4:42)
10. Smooth Criminal (4:19)
11. Leave Me Alone (4:40)

Продолжительность: 00:48:14

Код:

Exact Audio Copy V1.0 beta 3 from 29. August 2011

EAC extraction logfile from 16. September 2012, 23:14

Michael Jackson / Bad 25 CD1

Used drive  : HL-DT-STDVDRAM GE20NU10   Adapter: 7  ID: 0

Read mode               : Secure
Utilize accurate stream : Yes
Defeat audio cache      : Yes
Make use of C2 pointers : No

Read offset correction                      : 667
Overread into Lead-In and Lead-Out          : No
Fill up missing offset samples with silence : Yes
Delete leading and trailing silent blocks   : No
Null samples used in CRC calculations       : Yes
Used interface                              : Native Win32 interface for Win NT & 2000
Gap handling                                : Appended to previous track

Used output format              : User Defined Encoder
Selected bitrate                : 1024 kBit/s
Quality                         : High
Add ID3 tag                     : No
Command line compressor         : C:\Program Files\Exact Audio Copy\FLAC\FLAC.EXE
Additional command line options : -6 -V -T "ARTIST=%artist%" -T "TITLE=%title%" -T "ALBUM=%albumtitle%" -T "DATE=%year%" -T "TRACKNUMBER=%tracknr%" -T "GENRE=%genre%" -T "COMMENT=%comment%" -T "BAND=%albuminterpret%" -T "ALBUMARTIST=%albuminterpret%" -T "COMPOSER=%composer%" %haslyrics%--tag-from-file=LYRICS="%lyricsfile%"%haslyrics% -T "DISCNUMBER=%cdnumber%" -T "TOTALDISCS=%totalcds%" -T "TOTALTRACKS=%numtracks%" %hascover%--picture="%coverfile%"%hascover% %source% -o %dest%

TOC of the extracted CD

     Track |   Start  |  Length  | Start sector | End sector
    ---------------------------------------------------------
        1  |  0:00.00 |  4:07.43 |         0    |    18567
        2  |  4:07.43 |  4:59.13 |     18568    |    41005
        3  |  9:06.56 |  4:04.58 |     41006    |    59363
        4  | 13:11.39 |  3:49.43 |     59364    |    76581
        5  | 17:01.07 |  4:07.41 |     76582    |    95147
        6  | 21:08.48 |  3:55.01 |     95148    |   112773
        7  | 25:03.49 |  5:18.56 |    112774    |   136679
        8  | 30:22.30 |  4:10.73 |    136680    |   155502
        9  | 34:33.28 |  4:42.21 |    155503    |   176673
       10  | 39:15.49 |  4:18.51 |    176674    |   196074
       11  | 43:34.25 |  4:40.07 |    196075    |   217081

Track  1

     Filename D:\EACRips\Michael Jackson - Bad 25\CD1\01 - Bad.wav

     Pre-gap length  0:00:02.00

     Peak level 100.0 %
     Extraction speed 1.2 X
     Track quality 100.0 %
     Test CRC D47BFF33
     Copy CRC D47BFF33
     Track not present in AccurateRip database
     Copy OK

Track  2

     Filename D:\EACRips\Michael Jackson - Bad 25\CD1\02 - The Way You Make Me Feel.wav

     Pre-gap length  0:00:00.40

     Peak level 99.4 %
     Extraction speed 1.3 X
     Track quality 100.0 %
     Test CRC FF09F7AD
     Copy CRC FF09F7AD
     Track not present in AccurateRip database
     Copy OK

Track  3

     Filename D:\EACRips\Michael Jackson - Bad 25\CD1\03 - Speed Demon.wav

     Pre-gap length  0:00:00.42

     Peak level 100.0 %
     Extraction speed 1.4 X
     Track quality 100.0 %
     Test CRC 9C8C935C
     Copy CRC 9C8C935C
     Track not present in AccurateRip database
     Copy OK

Track  4

     Filename D:\EACRips\Michael Jackson - Bad 25\CD1\04 - Liberian Girl.wav

     Peak level 100.0 %
     Extraction speed 1.5 X
     Track quality 100.0 %
     Test CRC 1DA895C3
     Copy CRC 1DA895C3
     Track not present in AccurateRip database
     Copy OK

Track  5

     Filename D:\EACRips\Michael Jackson - Bad 25\CD1\05 - Just Good Friends.wav

     Pre-gap length  0:00:00.41

     Peak level 98.8 %
     Extraction speed 1.6 X
     Track quality 100.0 %
     Test CRC 4245A95C
     Copy CRC 4245A95C
     Track not present in AccurateRip database
     Copy OK

Track  6

     Filename D:\EACRips\Michael Jackson - Bad 25\CD1\06 - Another Part Of Me.wav

     Pre-gap length  0:00:00.25

     Peak level 100.0 %
     Extraction speed 1.5 X
     Track quality 99.9 %
     Test CRC DD148B40
     Copy CRC DD148B40
     Track not present in AccurateRip database
     Copy OK

Track  7

     Filename D:\EACRips\Michael Jackson - Bad 25\CD1\07 - Man In The Mirror.wav

     Pre-gap length  0:00:00.49

     Peak level 98.3 %
     Extraction speed 1.9 X
     Track quality 100.0 %
     Test CRC 526DC1C0
     Copy CRC 526DC1C0
     Track not present in AccurateRip database
     Copy OK

Track  8

     Filename D:\EACRips\Michael Jackson - Bad 25\CD1\08 - I Just Can't Stop Loving You.wav

     Pre-gap length  0:00:00.25

     Peak level 100.0 %
     Extraction speed 1.6 X
     Track quality 99.9 %
     Test CRC 38704819
     Copy CRC 38704819
     Track not present in AccurateRip database
     Copy OK

Track  9

     Filename D:\EACRips\Michael Jackson - Bad 25\CD1\09 - Dirty Diana.wav

     Pre-gap length  0:00:00.74

     Peak level 99.0 %
     Extraction speed 2.0 X
     Track quality 100.0 %
     Test CRC 4A81E38E
     Copy CRC 4A81E38E
     Track not present in AccurateRip database
     Copy OK

Track 10

     Filename D:\EACRips\Michael Jackson - Bad 25\CD1\10 - Smooth Criminal.wav

     Pre-gap length  0:00:00.64

     Peak level 96.0 %
     Extraction speed 2.1 X
     Track quality 100.0 %
     Test CRC 1D593643
     Copy CRC 1D593643
     Track not present in AccurateRip database
     Copy OK

Track 11

     Filename D:\EACRips\Michael Jackson - Bad 25\CD1\11 - Leave Me Alone.wav

     Pre-gap length  0:00:01.04

     Peak level 99.3 %
     Extraction speed 2.2 X
     Track quality 100.0 %
     Test CRC 7D383E99
     Copy CRC 7D383E99
     Track not present in AccurateRip database
     Copy OK

None of the tracks are present in the AccurateRip database

No errors occurred

End of status report

==== Log checksum 85325DEEB7124FF9D849BBF828BA17D7CDB8017324495EF5591FFFF751A897C8 ====

Код:

-----------------------

DON'T MODIFY THIS FILE

-----------------------

PERFORMER: auCDtect Task Manager, ver. 1.5.1RC4 build 1.5.1.5
Copyright (c) 2008-2010 y-soft. All rights reserved
http://y-soft.org

ANALYZER: auCDtect: CD records authenticity detector, version 0.8.2
Copyright (c) 2004 Oleg Berngardt. All rights reserved.
Copyright (c) 2004 Alexander Djourik. All rights reserved.

FILE: 11 - Leave Me Alone.flac
  Size: 36630222 Hash: E26DFC3D3F3C8FC48E6746BF13116494 Accuracy: -m0
  Conclusion: CDDA 100%
  Signature: 86D5645E229DF124C49AEA1EEBCB9333B9A05821
FILE: 10 - Smooth Criminal.flac
  Size: 34063831 Hash: 989BC3790E876D0D7293DA773E10047D Accuracy: -m0
  Conclusion: CDDA 100%
  Signature: 835A3745AEACAD4836E56AD1CB5FF001DA95EE3D
FILE: 09 - Dirty Diana.flac
  Size: 36414960 Hash: 9FC28885D8D16A58408A9B8CCEF27F4F Accuracy: -m0
  Conclusion: CDDA 100%
  Signature: E1EE4568BD5943924FD79BFD2963115053723D43
FILE: 08 - I Just Can't Stop Loving You.flac
  Size: 28523998 Hash: 674019930757C42C472DA2A56F05240F Accuracy: -m0
  Conclusion: CDDA 99%
  Signature: 30C9BA6A9D8BD684F3231EC43621BFE6F79C97C4
FILE: 07 - Man In The Mirror.flac
  Size: 39663285 Hash: FC945102D3C614BC3B8EFAD60A07C707 Accuracy: -m0
  Conclusion: CDDA 100%
  Signature: 0802AA923BF545DF236CCC2D6E27736A42C80737
FILE: 06 - Another Part Of Me.flac
  Size: 30525233 Hash: 6A7141C151F88334C6283A1EA4CC1462 Accuracy: -m0
  Conclusion: CDDA 100%
  Signature: 5FDF8B2560C0F4EF0C8DFEDEFDF418BFB496E28C
FILE: 05 - Just Good Friends.flac
  Size: 32416544 Hash: 7CDA71EA834D4B76D630AF2BD1DC0A19 Accuracy: -m0
  Conclusion: CDDA 100%
  Signature: 92748D9FE678694F3657A5C8C8DA781E6878E2C2
FILE: 04 - Liberian Girl.flac
  Size: 27475039 Hash: 214B765B6DABC842A32A7992FBA75C72 Accuracy: -m0
  Conclusion: CDDA 100%
  Signature: 4CE8B5590B9598AEF69EC77179211E09630707A0
FILE: 03 - Speed Demon.flac
  Size: 31057880 Hash: 62CBF0C99080D8827F42CF91637ECA28 Accuracy: -m0
  Conclusion: CDDA 100%
  Signature: E4A843AD9ED26FAEBE21555DE62B066F4561B4AF
FILE: 02 - The Way You Make Me Feel.flac
  Size: 41658566 Hash: 601E2B49902E5AE9AF4772E1E6D838A1 Accuracy: -m0
  Conclusion: CDDA 100%
  Signature: B9405A87F6567CFB2386B6174095F9F0E86BBAE6
FILE: 01 - Bad.flac
  Size: 34472155 Hash: 7C7419DF536FB82B2705498E8859AE0F Accuracy: -m0
  Conclusion: CDDA 99%
  Signature: B3EBE96F0E545887A4EE02F4990FF9BFE789F7A6



Треклист:
01. Don’t Be Messin’ Around (4:20)
02. I’m So Blue (4:10)
03. Song Groove (aka Abortion Papers) (4:29)
04. Free (4:27)
05. Price Of Fame (4:35)
06. Al Capone (3:37)
07. Streetwalker (5:56)
08. Fly Away (3:29)
09. Todo Mi Amor Eres Tu (I Just Can't Stop Loving You, Spanish Version) (4:11)
10. Je Ne Veux Pas La Fin De Nous (I Just Can't Stop Loving You, French Version) (4:08)
11. Bad (Remix By Afrojack featuring Pitbull - DJ Buddha Edit) (4:31)
12. Speed Demon (Nero Remix) (4:14)
13. Bad (Afrojack Club Mix) (7:36)

Продолжительность: 00:59:42

Код:

Exact Audio Copy V1.0 beta 3 from 29. August 2011

EAC extraction logfile from 17. September 2012, 0:44

Michael Jackson / Bad 25 CD2

Used drive  : HL-DT-STDVDRAM GE20NU10   Adapter: 7  ID: 0

Read mode               : Secure
Utilize accurate stream : Yes
Defeat audio cache      : Yes
Make use of C2 pointers : No

Read offset correction                      : 667
Overread into Lead-In and Lead-Out          : No
Fill up missing offset samples with silence : Yes
Delete leading and trailing silent blocks   : No
Null samples used in CRC calculations       : Yes
Used interface                              : Native Win32 interface for Win NT & 2000
Gap handling                                : Appended to previous track

Used output format              : User Defined Encoder
Selected bitrate                : 1024 kBit/s
Quality                         : High
Add ID3 tag                     : No
Command line compressor         : C:\Program Files\Exact Audio Copy\FLAC\FLAC.EXE
Additional command line options : -6 -V -T "ARTIST=%artist%" -T "TITLE=%title%" -T "ALBUM=%albumtitle%" -T "DATE=%year%" -T "TRACKNUMBER=%tracknr%" -T "GENRE=%genre%" -T "COMMENT=%comment%" -T "BAND=%albuminterpret%" -T "ALBUMARTIST=%albuminterpret%" -T "COMPOSER=%composer%" %haslyrics%--tag-from-file=LYRICS="%lyricsfile%"%haslyrics% -T "DISCNUMBER=%cdnumber%" -T "TOTALDISCS=%totalcds%" -T "TOTALTRACKS=%numtracks%" %hascover%--picture="%coverfile%"%hascover% %source% -o %dest%

TOC of the extracted CD

     Track |   Start  |  Length  | Start sector | End sector
    ---------------------------------------------------------
        1  |  0:00.00 |  4:20.28 |         0    |    19527
        2  |  4:20.28 |  4:09.44 |     19528    |    38246
        3  |  8:29.72 |  4:28.60 |     38247    |    58406
        4  | 12:58.57 |  4:27.06 |     58407    |    78437
        5  | 17:25.63 |  4:35.32 |     78438    |    99094
        6  | 22:01.20 |  3:36.54 |     99095    |   115348
        7  | 25:37.74 |  5:55.66 |    115349    |   142039
        8  | 31:33.65 |  3:28.57 |    142040    |   157696
        9  | 35:02.47 |  4:11.34 |    157697    |   176555
       10  | 39:14.06 |  4:07.59 |    176556    |   195139
       11  | 43:21.65 |  4:30.58 |    195140    |   215447
       12  | 47:52.48 |  4:13.39 |    215448    |   234461
       13  | 52:06.12 |  7:35.58 |    234462    |   268644

Track  1

     Filename D:\EACRips\Michael Jackson - Bad 25\CD2\01 - Don’t Be Messin’ Around.wav

     Pre-gap length  0:00:02.00

     Peak level 100.0 %
     Extraction speed 1.2 X
     Track quality 100.0 %
     Test CRC F29D46F4
     Copy CRC F29D46F4
     Track not present in AccurateRip database
     Copy OK

Track  2

     Filename D:\EACRips\Michael Jackson - Bad 25\CD2\02 - I’m So Blue.wav

     Peak level 99.2 %
     Extraction speed 1.3 X
     Track quality 100.0 %
     Test CRC 5E2FC963
     Copy CRC 5E2FC963
     Track not present in AccurateRip database
     Copy OK

Track  3

     Filename D:\EACRips\Michael Jackson - Bad 25\CD2\03 - Song Groove (aka Abortion Papers).wav

     Pre-gap length  0:00:00.73

     Peak level 100.0 %
     Extraction speed 1.4 X
     Track quality 100.0 %
     Test CRC 40E46585
     Copy CRC 40E46585
     Track not present in AccurateRip database
     Copy OK

Track  4

     Filename D:\EACRips\Michael Jackson - Bad 25\CD2\04 - Free.wav

     Pre-gap length  0:00:00.78

     Peak level 90.9 %
     Extraction speed 1.5 X
     Track quality 100.0 %
     Test CRC 53ECA022
     Copy CRC 53ECA022
     Track not present in AccurateRip database
     Copy OK

Track  5

     Filename D:\EACRips\Michael Jackson - Bad 25\CD2\05 - Price Of Fame.wav

     Pre-gap length  0:00:00.36

     Peak level 100.0 %
     Extraction speed 1.6 X
     Track quality 100.0 %
     Test CRC 5D359DE6
     Copy CRC 5D359DE6
     Track not present in AccurateRip database
     Copy OK

Track  6

     Filename D:\EACRips\Michael Jackson - Bad 25\CD2\06 - Al Capone.wav

     Pre-gap length  0:00:01.00

     Peak level 100.0 %
     Extraction speed 1.6 X
     Track quality 100.0 %
     Test CRC 5B135961
     Copy CRC 5B135961
     Track not present in AccurateRip database
     Copy OK

Track  7

     Filename D:\EACRips\Michael Jackson - Bad 25\CD2\07 - Streetwalker.wav

     Pre-gap length  0:00:02.85

     Peak level 100.0 %
     Extraction speed 1.7 X
     Track quality 99.9 %
     Test CRC F53C4BA7
     Copy CRC F53C4BA7
     Track not present in AccurateRip database
     Copy OK

Track  8

     Filename D:\EACRips\Michael Jackson - Bad 25\CD2\08 - Fly Away.wav

     Pre-gap length  0:00:02.50

     Peak level 100.0 %
     Extraction speed 1.8 X
     Track quality 100.0 %
     Test CRC 2874AC47
     Copy CRC 2874AC47
     Track not present in AccurateRip database
     Copy OK

Track  9

     Filename D:\EACRips\Michael Jackson - Bad 25\CD2\09 - Todo Mi Amor Eres Tu (I Just Can't Stop Loving You, Spanish Version).wav

     Peak level 100.0 %
     Extraction speed 2.0 X
     Track quality 100.0 %
     Test CRC 28F29C41
     Copy CRC 28F29C41
     Track not present in AccurateRip database
     Copy OK

Track 10

     Filename D:\EACRips\Michael Jackson - Bad 25\CD2\10 - Je Ne Veux Pas La Fin De Nous (I Just Can't Stop Loving You, French Version).wav

     Peak level 98.6 %
     Extraction speed 2.0 X
     Track quality 100.0 %
     Test CRC 39BC12BF
     Copy CRC 39BC12BF
     Track not present in AccurateRip database
     Copy OK

Track 11

     Filename D:\EACRips\Michael Jackson - Bad 25\CD2\11 - Bad (Remix By Afrojack featuring Pitbull - DJ Buddha Edit).wav

     Pre-gap length  0:00:00.17

     Peak level 100.0 %
     Extraction speed 2.1 X
     Track quality 100.0 %
     Test CRC C023E657
     Copy CRC C023E657
     Track not present in AccurateRip database
     Copy OK

Track 12

     Filename D:\EACRips\Michael Jackson - Bad 25\CD2\12 - Speed Demon (Nero Remix).wav

     Pre-gap length  0:00:01.24

     Peak level 99.6 %
     Extraction speed 2.1 X
     Track quality 100.0 %
     Test CRC CF404ECE
     Copy CRC CF404ECE
     Track not present in AccurateRip database
     Copy OK

Track 13

     Filename D:\EACRips\Michael Jackson - Bad 25\CD2\13 - Bad (Afrojack Club Mix).wav

     Pre-gap length  0:00:05.40

     Peak level 100.0 %
     Extraction speed 2.4 X
     Track quality 100.0 %
     Test CRC F21CA703
     Copy CRC F21CA703
     Track not present in AccurateRip database
     Copy OK

None of the tracks are present in the AccurateRip database

No errors occurred

End of status report

==== Log checksum 908FF023B8EA3307F9217B26D169A32FC7BD4F822A34A1CAC23C9AC0ED9454AC ====

Код:

-----------------------

DON'T MODIFY THIS FILE

-----------------------

PERFORMER: auCDtect Task Manager, ver. 1.5.1RC4 build 1.5.1.5
Copyright (c) 2008-2010 y-soft. All rights reserved
http://y-soft.org

ANALYZER: auCDtect: CD records authenticity detector, version 0.8.2
Copyright (c) 2004 Oleg Berngardt. All rights reserved.
Copyright (c) 2004 Alexander Djourik. All rights reserved.

FILE: 13 - Bad (Afrojack Club Mix).flac
  Size: 57873941 Hash: 6ACB886AB1CCCB221907031AD3906DC7 Accuracy: -m0
  Conclusion: CDDA 100%
  Signature: 6A16E795EC78639A50634774E8D06A0AA4E179FD
FILE: 12 - Speed Demon (Nero Remix).flac
  Size: 35558608 Hash: D6C8BD54BE9805B4E4B1071B8AA577D9 Accuracy: -m0
  Conclusion: CDDA 99%
  Signature: D1178D2F22B45CB5B9687A833725C5492B7F7501
FILE: 11 - Bad (Remix By Afrojack featuring Pitbull - DJ Buddha Edit).flac
  Size: 33919434 Hash: 15B7DE013F633849DF81AAC5BE71D43B Accuracy: -m0
  Conclusion: CDDA 100%
  Signature: 0F1232A1EF31C27FAC522CB340285041458F5D83
FILE: 10 - Je Ne Veux Pas La Fin De Nous (I Just Can't Stop Loving You, French Version).flac
  Size: 28427537 Hash: 2C3C6AFF4D2598D15B88C136AE4AC82A Accuracy: -m0
  Conclusion: CDDA 100%
  Signature: 62952470E235E4869BBF90D3783AE79DBCB0923B
FILE: 09 - Todo Mi Amor Eres Tu (I Just Can't Stop Loving You, Spanish Version).flac
  Size: 29041086 Hash: A91FE3CE219705484F7C466741DB89EE Accuracy: -m0
  Conclusion: CDDA 99%
  Signature: FAE8E2EAF65F9730E853421DA232147B11A9034E
FILE: 08 - Fly Away.flac
  Size: 26746038 Hash: 2B5CC8F332A7DD9DA2C723DB3F44F990 Accuracy: -m0
  Conclusion: CDDA 100%
  Signature: BE45CC754539A7F3A7FB6BB04AE0B61601B23B10
FILE: 07 - Streetwalker.flac
  Size: 44170622 Hash: 1908FD482467FA14B7042ADAD917C0FF Accuracy: -m0
  Conclusion: CDDA 100%
  Signature: 8C852F2774E78AE93512E2D03FEC024D916BBC7B
FILE: 06 - Al Capone.flac
  Size: 27692718 Hash: 65B7600BE362E32C2A0E3138A01B863E Accuracy: -m0
  Conclusion: CDDA 100%
  Signature: 8F7AAD3DB97A0E8D5E1F1E84C83B29153ACBCB4B
FILE: 05 - Price Of Fame.flac
  Size: 36266484 Hash: DB08106B00732CDA197D367DC7CC8244 Accuracy: -m0
  Conclusion: CDDA 100%
  Signature: 46CF785B32CA66AEC5AEE34B60DFB77C9CF3C7DE
FILE: 04 - Free.flac
  Size: 34169554 Hash: 8C3B08431C7E9CAB18D08D8510C8A66F Accuracy: -m0
  Conclusion: CDDA 99%
  Signature: F5B23233C0ED080498CAA4A5934D8C81F4FB3945
FILE: 03 - Song Groove (aka Abortion Papers).flac
  Size: 35645495 Hash: 6A599AC70AADB5FC5E9CC72DEC0D8320 Accuracy: -m0
  Conclusion: CDDA 100%
  Signature: 61D40C34B578216975BBF24C3FD1E2A660513D85
FILE: 02 - I’m So Blue.flac
  Size: 29460258 Hash: F40B11A01CC8461525F7845917696F2E Accuracy: -m0
  Conclusion: CDDA 100%
  Signature: 84B773B383A93C02F3B3A72783A62F10026C097C
FILE: 01 - Don’t Be Messin’ Around.flac
  Size: 28968658 Hash: A12BC5ACBB0D6C8A4295EB1153438E92 Accuracy: -m0
  Conclusion: CDDA 100%
  Signature: D53F266FC4B1820375CDF8CB70B79C252C203603

Download

Скачать (бесплатно и на максимальной скорости)!

Как скачивать  ·   Что такое torrent (торрент)  ·   Рейтинг и ограничения

Сайт не распространяет и не хранит электронные версии произведений, а лишь предоставляет доступ к создаваемому пользователями каталогу ссылок на торрент-файлы, которые содержат только списки хеш-сумм


 
Показать сообщения:    
Ответить на тему

Текущее время: 15-Янв 23:02

Часовой пояс: GMT + 3



Вы не можете начинать темы
Вы не можете отвечать на сообщения
Вы не можете редактировать свои сообщения
Вы не можете удалять свои сообщения
Вы не можете голосовать в опросах
Вы не можете прикреплять файлы к сообщениям
Вы не можете скачивать файлы