Loading...
Error
Регистрация  · 
Имя: Пароль:    
 ·  Забыли пароль?
Правила пользования ресурсом

До Нового года осталось:
Обладатель VIP статуса на 24 часа: nikola120
стань следующим читай правила
Сегодня идет свободное скачивание без начисления скачанного

(Heavy Metal) Ozzy Osbourne - 30th Anniversary LP releases (2 albums) [24/96] - 2011, FLAC (tracks), lossless

Ответить на тему
 
Автор Сообщение

watcher


post 18-Авг-2012 07:12

 

Ozzy Osbourne - 30th Anniversary LP releases (2 albums) [24/96]



Страна: Великобритания
Жанр: Heavy Metal
Год выпуска: 2011
Формат: FLAC (tracks)
Битрейт аудио: lossless
Автор рипов: aksman

RCM Hannl 'limited' with "Rotating Brush"
Music Hall MMF 9.1 Turntable
Tonearm: Pro-Ject 9cc evo with Pure Silver Wires
Cartridge: Nagaoka MP-500
Brocksieper Phonomax (Tube Phono PreAmp)
E-MU 0404 external USB 2.0 Audiointerface
Interconnections : Silent Wire NF5
WaveLab 6 recording software
iZotope RX Advanced 2.00 for resampling and dithering

Vacuum cleaning > TT > Brocksieper Phonomax > E-MU 0404 > WaveLab 6 (24/192) > manual click removal >
analyze (no clipping, no DC Bias offset) > resampling and dithering with iZotope RX Advanced 2.00
> split into individual Tracks > FLAC encoded (Vers. 1.21)

No silence been removed, please burn gapless to match original tracklayout.


Треклист:

01. I Don't Know
02. Crazy Train
03. Goodbye to Romance
04. Dee
05. Suicide Solution
06. Mr. Crowley
07. No Bone Movies
08. Revelation (Mother Earth)
09. Steal Away (The Night)

Продолжительность: 39:21

Состав группы:

Ozzy Osbourne - lead vocals, harmony vocals;
Randy Rhoads - all guitars;
Bob Daisley - bass guitar, harmony vocals, gongs;
Lee Kerslake - drums, percussion, tubular bells, timpani drums;
Don Airey - keyboards.


----------------------------------------------------------------------------------------------
Analyzed folder: D:\*****\Ozzy Osbourne - Blizzard of Ozz (1981) [Sony Legacy 180g LP; CD-format}\
----------------------------------------------------------------------------------------------
DR Peak RMS Filename
----------------------------------------------------------------------------------------------

DR11 -2.32 dB -14.80 dB A1 - I Don't Know.wav
DR11 -0.24 dB -14.12 dB A2 - Crazy Train.wav
DR12 -2.47 dB -16.58 dB A3 - Goodbye to Romance.wav
DR13 -8.39 dB -24.69 dB A4 - Dee.wav
DR12 -2.37 dB -15.89 dB A5 - Suicide Solution.wav
DR11 -1.34 dB -14.78 dB B1 - Mr. Crowley.wav
DR12 -1.18 dB -15.23 dB B2 - No Bone Movies.wav
DR11 -3.31 dB -17.18 dB B3 - Revelation (Mother Earth).wav
DR10 -3.00 dB -15.30 dB B4 - Steal Away (The Night).wav
----------------------------------------------------------------------------------------------

Number of files: 9
Official DR value: DR11

==============================================================================================

Треклист:

01. Over the Mountain
02. Flying High Again
03. You Can't Kill Rock and Roll
04. Believer
05. Little Dolls
06. Tonight
07. S.A.T.O.
08. Diary of a Madman

Продолжительность: 43:13

Состав группы:

Ozzy Osbourne - lead vocals, backing vocals;
Randy Rhoads - guitars;
Bob Daisley - bass guitar;
Lee Kerslake - drums, percussion;
Johnny Cook - keyboards.


----------------------------------------------------------------------------------------------
Analyzed folder: D:\*****\Ozzy Osbourne - Diary of a Madman (1981) [flac] {Legacy LP; CD-format}\
----------------------------------------------------------------------------------------------
DR Peak RMS Filename
----------------------------------------------------------------------------------------------

DR12 -0.33 dB -14.49 dB A1 - Over the Mountain.wav
DR11 -0.95 dB -14.59 dB A2 - Flying High Again.wav
DR12 -1.67 dB -16.39 dB A3 - You Can't Kill Rock and Roll.wav
DR12 -1.58 dB -16.06 dB A4 - Believer.wav
DR13 -0.56 dB -15.09 dB B1 - Little Dolls.wav
DR11 -1.52 dB -15.99 dB B2 - Tonight.wav
DR12 -0.66 dB -14.74 dB B3 - S_A_T_O.wav
DR12 -1.98 dB -16.36 dB B4 - Diary of a Madman.wav
----------------------------------------------------------------------------------------------

Number of files: 8
Official DR value: DR12

==============================================================================================

Mastered by George Marino at Sterling Sound, New York City, 2010.


Чтобы записать данный релиз на CD, необходимо преобразовать формат файлов в 16 бит/44.1 кГц. Это можно сделать с помощью, например, Adobe Audition или Sony Sound Forge.



Download

Скачать (бесплатно и на максимальной скорости)!

Как скачивать  ·   Что такое torrent (торрент)  ·   Рейтинг и ограничения

Сайт не распространяет и не хранит электронные версии произведений, а лишь предоставляет доступ к создаваемому пользователями каталогу ссылок на торрент-файлы, которые содержат только списки хеш-сумм


 
Показать сообщения:    
Ответить на тему

Текущее время: 24-Янв 17:38

Часовой пояс: GMT + 3



Вы не можете начинать темы
Вы не можете отвечать на сообщения
Вы не можете редактировать свои сообщения
Вы не можете удалять свои сообщения
Вы не можете голосовать в опросах
Вы не можете прикреплять файлы к сообщениям
Вы не можете скачивать файлы