Loading...
Error
Регистрация  · 
Имя: Пароль:    
 ·  Забыли пароль?
Правила пользования ресурсом

Сегодня идет свободное скачивание без начисления скачанного

Герои пяти планет / The Five Star Stories (Ямадзаки Кадзуо) [Movie] [1989] [RUS/JAP+SUB(RUS/ENG/JAP)] [фантастика, драма, романтика, сёдзё] [BDRip-AVC] MVO

Ответить на тему
 
Автор Сообщение

NINJA MASTER


post 31-Июл-2012 03:35

 

Герои пяти планет / The Five Star Stories

Год выпуска: 1989
Производство: Япония
Жанр: фантастика, драма, романтика, сёдзё
Тип: Movie
Продолжительность: 01:05:37
Озвучка: Профессиональный (многоголосый, закадровый)
Оригинальный аудиопоток: Японский
Звуковые дорожки: JAP/RUS
Студия перевода: MC Entertaiment
Субтитры: Русские, английские, японские, в контейнере

Режиссер: Ямадзаки Кадзуо / Yamazaki Kazuo / やまざきかずお / 山崎和男
Описание: Действие фильма происходит в созвездии Джокер, называемой Пятизвёздьем. Раскинувшиеся на его просторах королевства и империи, причудливые гибриды феодального уклада и высоких технологий, ведут непрерывную борьбу за сферы влияния, когда главным орудием войны выступают гигантские роботы. Для их управления пилотам необходима помощь выращиваемых особыми мастерами девушек-гиноидов (фатим), обладающих паранормальным способностями. Чтобы те были послушны, им встраивают хитроумные устройства - эмоциональные и интеллектуальные ограничители, после чего каждая фатима на специальных аукционах выбирает своего пилота, которому будет служить всю жизнь.

Однако фатимы Лахесис и Клото, самые последние творения доктора Баланше, отличаются от других гиноидов - смертельно больной доктор не стал уродовать девушек и в тайне от всех не установил им ограничители. От незавидной судьбы служанок их теперь может спасти только близкий друг Баланше - мастер роботов Ладиос Соп, в которого Лахесис влюблена с самого детства. Но что может сделать простой парень против законов империи? Хотя кто знает... У всех есть свои тайны...

© Алексей Фадеев, World Art

Рейтинг на World-art: 7.9/10

Источник/Качество: BDRip-AVC
Формат: MKV
Видео кодек: H.264
Аудио кодек: AC3
Видео: 1868x1078 (16:9), 23.976 fps, AVC MPEG-4 (x264), [email protected], ~12.4 mbps avg, 0.258 bit/pixel
Аудио1: Русский: 48 kHz, AC3 Dolby Digital, 3/2 (L,C,R,l,r) + LFE ch, ~384.00 kbps avg [Профессиональный (многоголосый, закадровый), MC Entertaiment]
Аудио2: Японский: 48 kHz, AC3 Dolby Digital, 3/2 (L,C,R,l,r) + LFE ch, ~384.00 kbps avg [Оригинал]
Субтитры: Русские, английские, японские
General
Unique ID : 243452408120089123637046172843594834312 (0xB7273A70C3FD028EA5DA676618716188)
Complete name : E:\TORENT\Geroi_pjati_planet.mkv
Format : Matroska
File size : 6.21 GiB
Duration : 1h 5mn
Overall bit rate : 13.5 Mbps
Encoded date : UTC 2010-07-14 14:55:25
Writing application : mkvmerge v2.4.0 ('Fumbling Towards Ecstasy') built on Oct 11 2008 20:13:15
Writing library : libebml v0.7.7 + libmatroska v0.8.1
Cover : Yes

Video
ID : 1
Format : AVC
Format/Info : Advanced Video Codec
Format profile : [email protected]
Format settings, CABAC : Yes
Format settings, ReFrames : 15 frames
Codec ID : V_MPEG4/ISO/AVC
Duration : 1h 5mn
Bit rate : 12.4 Mbps
Width : 1 868 pixels
Height : 1 078 pixels
Display aspect ratio : 16:9
Frame rate : 23.976 fps
Color space : YUV
Chroma subsampling : 4:2:0
Bit depth : 8 bits
Scan type : Progressive
Bits/(Pixel*Frame) : 0.258
Stream size : 5.73 GiB (92%)
Writing library : x264 core 79 r1354 636f98f
Encoding settings : cabac=1 / ref=15 / deblock=1:-2:-2 / analyse=0x3:0x133 / me=umh / subme=10 / psy=1 / psy_rd=0.8:0.0 / mixed_ref=1 / me_range=32 / chroma_me=1 / trellis=2 / 8x8dct=1 / cqm=0 / deadzone=21,11 / chroma_qp_offset=-2 / threads=6 / nr=0 / decimate=0 / mbaff=0 / constrained_intra=0 / bframes=6 / b_pyramid=0 / b_adapt=2 / b_bias=0 / direct=1 / wpredb=1 / wpredp=2 / keyint=250 / keyint_min=25 / scenecut=40 / rc=crf / mbtree=0 / crf=18.0 / qcomp=0.60 / qpmin=10 / qpmax=25 / qpstep=4 / ip_ratio=1.40 / pb_ratio=1.30 / aq=1:0.70

Audio #1
ID : 5
Format : AC-3
Format/Info : Audio Coding 3
Mode extension : CM (complete main)
Codec ID : A_AC3
Duration : 1h 5mn
Bit rate mode : Constant
Bit rate : 384 Kbps
Channel(s) : 6 channels
Channel positions : Front: L C R, Side: L R, LFE
Sampling rate : 48.0 KHz
Bit depth : 16 bits
Compression mode : Lossy
Stream size : 181 MiB (3%)
Title : MC Entertaiment
Language : Russian

Audio #2
ID : 6
Format : AC-3
Format/Info : Audio Coding 3
Mode extension : CM (complete main)
Codec ID : A_AC3
Duration : 1h 5mn
Bit rate mode : Constant
Bit rate : 384 Kbps
Channel(s) : 6 channels
Channel positions : Front: L C R, Side: L R, LFE
Sampling rate : 48.0 KHz
Bit depth : 16 bits
Compression mode : Lossy
Stream size : 181 MiB (3%)
Title : Original
Language : Japanese

Text #1
ID : 2
Format : UTF-8
Codec ID : S_TEXT/UTF8
Codec ID/Info : UTF-8 Plain Text
Title : subs (SRT)
Language : Russian

Text #2
ID : 3
Format : ASS
Codec ID : S_TEXT/ASS
Codec ID/Info : Advanced Sub Station Alpha
Compression mode : Lossless
Title : Styled subs (ASS)
Language : English

Text #3
ID : 4
Format : VobSub
Muxing mode : zlib
Codec ID : S_VOBSUB
Codec ID/Info : The same subtitle format used on DVDs
Title : Imagesubs (VOBSUB)
Language : Japanese

Menu
00:00:00.000 : en:Main
01:03:26.428 : en:Ending

Download

Скачать (бесплатно и на максимальной скорости)!

Как скачивать  ·   Что такое torrent (торрент)  ·   Рейтинг и ограничения

Сайт не распространяет и не хранит электронные версии произведений, а лишь предоставляет доступ к создаваемому пользователями каталогу ссылок на торрент-файлы, которые содержат только списки хеш-сумм


 

O.S.A.


post 06-Окт-2014 15:08

 

Качество исправил на AVC, т.к. картинка шириной 1868 вместо положенного 1920
 
Показать сообщения:    
Ответить на тему

Текущее время: 20-Сен 22:15

Часовой пояс: GMT + 3



Вы не можете начинать темы
Вы не можете отвечать на сообщения
Вы не можете редактировать свои сообщения
Вы не можете удалять свои сообщения
Вы не можете голосовать в опросах
Вы не можете прикреплять файлы к сообщениям
Вы не можете скачивать файлы



В начало страницы  •