Loading...
Error
Регистрация  · 
Имя: Пароль:    
 ·  Забыли пароль?
Правила пользования ресурсом

До Нового года осталось:
Сегодня идет свободное скачивание без начисления скачанного

Боевой дворецкий Хаятэ / Hayate the Combat Butle (Кавагути Кэйитиро) (1 сезон 52 серии из 52) [2007 г., комедия, романтика, сёнэн, HDTVRip 720р] VO

Ответить на тему
 
Автор Сообщение

NINJA MASTER


post 31-Июл-2012 03:28

 

Боевой дворецкий Хаятэ / Hayate the Combat Butle [1 сезон 52 серии][720p]

Год выпуска: 2007
Страна: япония
Жанр: комедия, романтика, сёнэн
Продолжительность: 52 серии по 25 минут
Перевод: Любительский (одноголосый) и встроенные субтитры.

Режиссер:
  • Кавагути Кэйитиро


В ролях:
  • Аниме персонажи


Описание: Хаятэ Аясаки – сын убежденных бездельников. Его детство и отрочество прошли без подарков к рождеству, школьных клубов и праздничных вечеринок, и даже приснившийся Санта-Клаус отказал Хаятэ в сочувствии, велев лишь побольше работать. И Хаятэ работал, развивая все свои таланты и способности. Но что толку! Однажды под рождество его легкомысленные родители сбежали, оставив сыну в подарок долговую расписку на баснословную сумму. И в самый сочельник к должнику нагрянули якудза... Что оставалось делать злополучному Хаятэ? Он понял, что добром добра не наживешь, и попытался похитить богатенькую девочку, чтобы получить за нее выкуп в уплату долга. Но юная наследница всё не так поняла. Внимание юноши, который сказал, что «она ему очень нужна», и что для него «это вопрос жизни и смерти», ей очень польстило. А тут он еще отбил ее у настоящих похитителей! Так решилась судьба Хаятэ Аясаки – он стал личным дворецким г-жи Наги Сандзэнин!
Качество: HDTVRip 720p
Формат: MKV
Видео кодек: h.264
Аудио кодек: AC3
Видео:h.264,1280x720,29.97fps,584Kbps
Аудио: Dolby AC3,48000Hz, 2.0 stereo,1536Kbps [Russian (Audio 1)]
Аудио: Dolby AC3,48000Hz, 2.0 stereo,1536Kbps [Japanese (Audio 2)]
General
Unique ID : 57616896500974889854890765853324139757 (0x2B589C521398CE6927BEE7D528A6DCED)
Complete name : D:\Bojevoj.dvoretskij.Hayate.(52.serij.iz.52).2007.DivX.HDTVRip\Bojevoj.dvoretskij.Hayate.01.serija.2007.DivX.HDTVRip.mkv
Format : Matroska
File size : 365 MiB
Duration : 24mn 44s
Overall bit rate : 2 060 Kbps
Encoded date : UTC 2009-11-24 11:55:26
Writing application : mkvmerge v2.9.8 ('C'est le bon') built on Aug 19 2009 16:59:50
Writing library : libebml v0.7.7 + libmatroska v0.8.1

Video
ID : 1
Format : MPEG-4 Visual
Format settings, BVOP : Yes
Format settings, QPel : No
Format settings, GMC : No warppoints
Format settings, Matrix : Default (H.263)
Codec ID : DX50
Codec ID/Hint : DivX 5
Duration : 24mn 44s
Bit rate : 1 635 Kbps
Width : 1 280 pixels
Height : 720 pixels
Display aspect ratio : 16:9
Frame rate : 29.970 fps
Color space : YUV
Chroma subsampling : 4:2:0
Bit depth : 8 bits
Scan type : Progressive
Compression mode : Lossy
Bits/(Pixel*Frame) : 0.059
Stream size : 289 MiB (79%)
Writing library : DivX 6.5.1 (UTC 2007-03)

Audio #1
ID : 2
Format : AC-3
Format/Info : Audio Coding 3
Mode extension : CM (complete main)
Codec ID : A_AC3
Duration : 24mn 44s
Bit rate mode : Constant
Bit rate : 192 Kbps
Channel(s) : 2 channels
Channel positions : Front: L R
Sampling rate : 48.0 KHz
Bit depth : 16 bits
Compression mode : Lossy
Stream size : 34.0 MiB (9%)
Language : Russian

Audio #2
ID : 3
Format : AC-3
Format/Info : Audio Coding 3
Mode extension : CM (complete main)
Codec ID : A_AC3
Duration : 24mn 44s
Bit rate mode : Constant
Bit rate : 192 Kbps
Channel(s) : 2 channels
Channel positions : Front: L R
Sampling rate : 48.0 KHz
Bit depth : 16 bits
Compression mode : Lossy
Stream size : 34.0 MiB (9%)
Language : Japanese

Text
ID : 4
Format : ASS
Codec ID : S_TEXT/ASS
Codec ID/Info : Advanced Sub Station Alpha
Compression mode : Lossless
Title : Russian
Language : Russian

Download

Скачать (бесплатно и на максимальной скорости)!

Как скачивать  ·   Что такое torrent (торрент)  ·   Рейтинг и ограничения

Сайт не распространяет и не хранит электронные версии произведений, а лишь предоставляет доступ к создаваемому пользователями каталогу ссылок на торрент-файлы, которые содержат только списки хеш-сумм


 
Показать сообщения:    
Ответить на тему

Текущее время: 23-Янв 16:58

Часовой пояс: GMT + 3



Вы не можете начинать темы
Вы не можете отвечать на сообщения
Вы не можете редактировать свои сообщения
Вы не можете удалять свои сообщения
Вы не можете голосовать в опросах
Вы не можете прикреплять файлы к сообщениям
Вы не можете скачивать файлы