Loading...
Error
Регистрация  · 
Имя: Пароль:    
 ·  Забыли пароль?
Правила пользования ресурсом

Обладатель VIP статуса на 24 часа: nikola120
стань следующим читай правила
Сегодня идет свободное скачивание без начисления скачанного

Александр Градский - 2 альбома (1985, 1988) [DTS 5.1|image (Upmix)]<русский рок, рок-опера>

Ответить на тему
 
Автор Сообщение

cataman


post 29-Июл-2012 21:57

 

Александр Градский - 2 альбома

Год: 1985, 1988
Жанр: русский рок, рок-опера
Общая продолжительность: 1:43:47
Кодек: DTS Upmix
Битрейт: 1411 кб/с

Александр Борисович Градский (3 ноября 1949, Копейск, Челябинская область) — советский и российский певец, мультиинструменталист, автор песен, поэт, композитор. Один из основоположников русского рока. Заслуженный деятель искусств России (1997). Лауреат Государственной премии РФ (1999). Народный артист России (1999).
Продолжительность: 01:26:43
В основу рок-оперы лёг военный переворот 1973 года в Чили, отстранивший от власти левое правительство
«Народного единства» Военная хунта, осуществившая переворот во главе с генералом Аугусто Пиночетом,
немедленно репрессировала тысячи сторонников свергнутого правительства. Стадион в Сантьяго был превращен в
тюрьму, куда сводили всех подозрительных. Одним из заключённых стал певец Виктор Хара, которого арестовали
в Университете Сантьяго 12 сентября 1973 года, поскольку он придерживался коммунистических идей и
пропагандировал их. Он был жестоко убит — ему раздробили кисти рук и расстреляли.

Треклист:

CD 1
01. Стадион - ЛИБРЕТТО (7:08)
02. Стадион - Действие I, Картина 1 (13:40)
03. Стадион - Действие I, Картина 2 (25:03)

CD 2
01. Стадион - Действие II, Картина 3 (21:23)
02. Стадион - Действие II, Картина 4 (19:31)
Александр Градский (гитара, фортепиано, синтезаторы, пиано-родес, хонер-клавинет, бас-синти, челеста, ударные)
Сергей Зенько (флейта, саксофон)
Владимир Васильков (ударные)
хор и симфонический оркестр под управлением Александра Петухова.

Код:

General
Complete name                            : D:\DownLoads\Александр Градский\Стадион\CD 1\Stadium_DTS-CD1.dts
Format                                   : Wave
File size                                : 463 MiB
Duration                                 : 45mn 50s
Overall bit rate mode                    : Constant
Overall bit rate                         : 1 411 Kbps

Audio
ID                                       : 0
Format                                   : DTS
Format/Info                              : Digital Theater Systems
Format settings, Endianness              : Little
Muxing mode                              : LE / 14
Codec ID                                 : 1
Duration                                 : 45mn 50s
Bit rate mode                            : Constant
Bit rate                                 : 1 411.2 Kbps
Channel(s)                               : 6 channels
Channel positions                        : Front: L C R, Side: L R, LFE
Sampling rate                            : 44.1 KHz
Bit depth                                : 16 bits
Compression mode                         : Lossy
Stream size                              : 463 MiB (100%)
Продолжительность: 00:17:05
Музыка и слова - Александр Градский, поёт - Александр Градский

Треклист:

01. Песня о Монте-Кристо (1:30)
02. Песня о Сумасшедших (2:20)
03. Песня о свободе (2:36)
04. Песня о золоте (3:30)
05. Песня о грехе (1:03)
06. Песня о надежде. Прощание (6:05)

Код:

General
Complete name                            : D:\DownLoads\Александр Градский\Узник замка Иф\Александр Градский - Музыка к фильму Узник замка Иф.wav
Format                                   : Wave
File size                                : 172 MiB
Duration                                 : 17mn 4s
Overall bit rate mode                    : Constant
Overall bit rate                         : 1 411 Kbps

Audio
ID                                       : 0
Format                                   : DTS
Format/Info                              : Digital Theater Systems
Format settings, Endianness              : Little
Muxing mode                              : LE / 14
Codec ID                                 : 1
Duration                                 : 17mn 4s
Bit rate mode                            : Constant
Bit rate                                 : 1 411.2 Kbps
Channel(s)                               : 6 channels
Channel positions                        : Front: L C R, Side: L R, LFE
Sampling rate                            : 44.1 KHz
Bit depth                                : 16 bits
Compression mode                         : Lossy
Stream size                              : 172 MiB (100%)

 
Показать сообщения:    
Ответить на тему

Текущее время: 23-Июн 15:46

Часовой пояс: GMT + 3



Вы не можете начинать темы
Вы не можете отвечать на сообщения
Вы не можете редактировать свои сообщения
Вы не можете удалять свои сообщения
Вы не можете голосовать в опросах
Вы не можете прикреплять файлы к сообщениям
Вы не можете скачивать файлы



В начало страницы  •