Loading...
Error
Регистрация  · 
Имя: Пароль:    
 ·  Забыли пароль?
Правила пользования ресурсом

Сегодня идет свободное скачивание без начисления скачанного

Последние львы / The Last Lions (Дерек Жубер) [2011 г., Документальный, Научно-популярный, BDRemux 1080p]

Ответить на тему
 
Автор Сообщение

O.S.A.


post 24-Июн-2012 21:37

 

Последние львы / The Last Lions


Год выпуска: 2011
Страна: США, Ботсвана
Жанр: Документальный, Научно-популярный
Продолжительность: 01:29:00
Перевод: Профессиональный (одноголосый) х 2 [А. Дасевич] + [И. Тарадайкин] + Оригинальная дорожка

Режиссер: Дерек Жубер

В ролях: Джереми Айронс

Описание: Львы мудрые и сильные животные по праву считаются царями природы. Так и было до недавнего времени… Человеческий эгоизм, неукротимая жажда развития поставила этот вид кошачьих на грань вымирания. Те особи, что остались в дикой природе, находятся под пристальным вниманием как защитников природы, так и алчных браконьеров. Ведь на черном рынке шкура льва стоит невероятно большие суммы. И находятся те люди, которые истребляют и без того вымирающий вид. Документальная лента «Последние львы» говорит сама за себя: этот фильм полностью посвящен жизни львов, проблемам, которые связаны с выживанием вида и возможными способами спасения величественных животных...


pекомендуется присутствие родителей


Качество: BDRemux 1080p
Формат: MKV
Видео кодек: x264
Аудио кодек: DTS / AC3
Видео: 1920x1080 (1.78:1), MPEG-4 AVC, 23.976 fps, 17 400 kbps avg
Аудио #1: [RUS] 48.0 kHz, DTS, 6 ch, ~1510.00 kbps [А. Дасевич]
Аудио #2: [RUS] 48.0 kHz, AC3, 2 ch, ~192.00 kbps [И. Тарадайкин]
Аудио #3: [ENG] 48.0 kHz, DTS, 6 ch, ~1510.00 kbps [Оригинальный]
Cубтитры: Нет
General
Unique ID : 245897277250622913266117479072195583298 (0xB8FE17CB92ABF03294DBBF9BE34A9D42)
Complete name : D:\Последние львы.2011.x264.Blu-Ray.Remux.(1080p).mkv
Format : Matroska
Format version : Version 1
File size : 13.2 GiB
Duration : 1h 29mn
Overall bit rate mode : Variable
Overall bit rate : 21.0 Mbps
Encoded date : UTC 2012-05-10 04:47:40
Writing application : mkvmerge v2.1.0 ('Another Place To Fall') built on Aug 19 2007 13:40:07
Writing library : libebml v0.7.7 + libmatroska v0.8.1

Video
ID : 1
Format : AVC
Format/Info : Advanced Video Codec
Format profile : [email protected]
Format settings, CABAC : Yes
Format settings, ReFrames : 4 frames
Format settings, GOP : M=3, N=24
Codec ID : V_MPEG4/ISO/AVC
Duration : 1h 29mn
Bit rate mode : Variable
Bit rate : 17.4 Mbps
Maximum bit rate : 33.0 Mbps
Width : 1 920 pixels
Height : 1 080 pixels
Display aspect ratio : 16:9
Frame rate : 23.976 fps
Standard : NTSC
Color space : YUV
Chroma subsampling : 4:2:0
Bit depth : 8 bits
Scan type : Progressive
Bits/(Pixel*Frame) : 0.350
Stream size : 10.9 GiB (83%)
Title : The last lions
Default : Yes
Forced : No
Color primaries : BT.709-5, BT.1361, IEC 61966-2-4, SMPTE RP177
Transfer characteristics : BT.709-5, BT.1361
Matrix coefficients : BT.709-5, BT.1361, IEC 61966-2-4 709, SMPTE RP177

Audio #1
ID : 2
Format : DTS
Format/Info : Digital Theater Systems
Codec ID : A_DTS
Duration : 1h 29mn
Bit rate mode : Constant
Bit rate : 1 510 Kbps
Channel(s) : 6 channels
Channel positions : Front: L C R, Side: L R, LFE
Sampling rate : 48.0 KHz
Bit depth : 24 bits
Compression mode : Lossy
Stream size : 968 MiB (7%)
Title : Дасевич
Language : Russian
Default : Yes
Forced : No

Audio #2
ID : 3
Format : AC-3
Format/Info : Audio Coding 3
Mode extension : CM (complete main)
Codec ID : A_AC3
Duration : 1h 29mn
Bit rate mode : Constant
Bit rate : 192 Kbps
Channel(s) : 2 channels
Channel positions : Front: L R
Sampling rate : 48.0 KHz
Bit depth : 16 bits
Compression mode : Lossy
Stream size : 123 MiB (1%)
Title : Тарадайкин
Language : Russian
Default : No
Forced : No

Audio #3
ID : 4
Format : DTS
Format/Info : Digital Theater Systems
Codec ID : A_DTS
Duration : 1h 29mn
Bit rate mode : Constant
Bit rate : 1 510 Kbps
Channel(s) : 6 channels
Channel positions : Front: L C R, Side: L R, LFE
Sampling rate : 48.0 KHz
Bit depth : 24 bits
Compression mode : Lossy
Stream size : 968 MiB (7%)
Title : English
Language : English
Default : No
Forced : No
Download

Скачать (бесплатно и на максимальной скорости)!

Как скачивать  ·   Что такое torrent (торрент)  ·   Рейтинг и ограничения

Сайт не распространяет и не хранит электронные версии произведений, а лишь предоставляет доступ к создаваемому пользователями каталогу ссылок на торрент-файлы, которые содержат только списки хеш-сумм


 

O.S.A.


post 18-Дек-2013 11:22

 

Восстановлен 18.12.13
 
Показать сообщения:    
Ответить на тему

Текущее время: 19-Дек 13:12

Часовой пояс: GMT + 3



Вы не можете начинать темы
Вы не можете отвечать на сообщения
Вы не можете редактировать свои сообщения
Вы не можете удалять свои сообщения
Вы не можете голосовать в опросах
Вы не можете прикреплять файлы к сообщениям
Вы не можете скачивать файлы



В начало страницы  •