Loading...
Error
Регистрация  · 
Имя: Пароль:    
 ·  Забыли пароль?
Правила пользования ресурсом

Сегодня идет свободное скачивание без начисления скачанного

Океаны / Oceans (Жак Перрен, Жак Клюзо) [2009 г., Документальный, Драма, Cемейный, BDRip 1080p]

Ответить на тему
 
Автор Сообщение

O.S.A.


post 10-Июн-2012 21:50

 

Океаны / Oceans
[Великое зрелище от великого Создателя]

Год выпуска: 2009
Страна: Франция, Испания, Швейцария
Жанр: Документальный, Драма, Cемейный
Продолжительность: 01:39:36
Перевод: Профессиональный (полное дублирование) + Французская дорожка

Режиссер: Жак Перрен, Жак Клюзо

В ролях: [Ведущие]: Педро Армендарис мл., Жак Перрен
[Рассказчики]: Пирс Броснан, Матиас Брандт, Альдо, Ланселот Перрен, Маноло Гарсиа
[Русский текст читает]
: Олег Басилашвили

Описание: «Океаны» — масштабный проект Жака Перрена — создателя знаменитых «Птиц» и «Микрокосмоса». Фильм о безграничности и свободе подводного мира, репортаж из другого мира, чуждого человеку, но полного жизни. Создатели отнеслись к океану как к живому, разумному существу, и смогли передать это ощущение зрителям.
Как и предыдущие работы Перрена и его соавтора Жака Клюзо, «Океаны* перевернул понятие «документальный фильм о природе». В нём подводные жители становятся героями триллера и боевика, захватывающих погонь и комедий.
Фильм «Океаны» создавался в течение пяти лет, съемки велись в разных уголках планеты. Благодаря огромному для документального кино бюджету — 80 млн. долларов — для фильма были разработаны совершенно новые технологии для съёмки под водой.
Съёмочная группа множество раз обогнула земной шар: oт Аргентины до Японии, oт Калифорнии до Мозамбика, от Северного и до Южного полюса. О многом из того, что было снято, не подозревали даже океанологи-консультанты.
Фильм поразил воображение зарубежных зрителей и кинокритиков. Ощущения от просмотра «Океанов» сравнивают с американскими горками ИЛИ путешествием на другую планету.




Качество: BDRip 1080p
Формат: MKV
Видео кодек: x264
Аудио кодек: DTS / AC3
Видео: 1920х800 (2.40:1), 23.976 fps, x264 AVC, 10 300 kbps avg, 0.28 bit/pixel
Аудио #1: 48.0 kHz, DTS, 6 (L,C,R) + L R, LFE ch, ~1510 kbps avg [Дублированный]
Аудио #2: 48,0 kHz, АС3, 6 (L,C,R) + L R, LFE ch, ~640 kbps avg [Французский]
Субтитры: Нет
Полное имя : Oceans.BDRip(1080p).mkv
Формат : Matroska
Размер файла : 9,04 Гбайт
Продолжительность : 1 ч. 43 м.
Общий поток : 12,5 Мбит/сек
Дата кодирования : UTC 2011-06-20 08:58:36
Программа кодирования : mkvmerge v2.2.0 ('Turn It On Again') built on Mar 4 2008 13:20:25
Библиотека кодирования : libebml v0.7.7 + libmatroska v0.8.1

Видео
Идентификатор : 1
Формат : AVC
Формат/Информация : Advanced Video Codec
Профиль формата : [email protected]
Параметр CABAC формата : Да
Параметр ReFrames формата : 5 кадров
Идентификатор кодека : V_MPEG4/ISO/AVC
Продолжительность : 1 ч. 43 м.
Битрейт : 10,3 Мбит/сек
Ширина : 1920 пикс.
Высота : 800 пикс.
Соотношение сторон : 2,40:1
Частота кадров : 23,976 кадр/сек
Цветовое пространство : YUV
Подвыборка цветности : 4:2:0
Битовая глубина : 8 бит
Тип развёртки : Прогрессивная
Бит/(Пиксели*Кадры) : 0.280
Размер потока : 7,30 Гбайт (81%)
Библиотека кодирования : x264 core 98 r1629 2e81ce1
Настройки программы : cabac=1 / ref=5 / deblock=1:-3:-3 / analyse=0x3:0x113 / me=tesa / subme=10 / psy=1 / psy_rd=1.00:0.00 / mixed_ref=1 / me_range=32 / chroma_me=1 / trellis=2 / 8x8dct=1 / cqm=0 / deadzone=21,11 / fast_pskip=0 / chroma_qp_offset=-2 / threads=6 / sliced_threads=0 / nr=0 / decimate=0 / interlaced=0 / constrained_intra=0 / bframes=16 / b_pyramid=0 / b_adapt=2 / b_bias=0 / direct=3 / weightb=1 / weightp=2 / keyint=600 / keyint_min=1 / scenecut=40 / intra_refresh=0 / rc_lookahead=60 / rc=2pass / mbtree=1 / bitrate=10321 / ratetol=1.0 / qcomp=0.60 / qpmin=10 / qpmax=51 / qpstep=4 / cplxblur=20.0 / qblur=0.5 / vbv_maxrate=50000 / vbv_bufsize=50000 / ip_ratio=1.40 / aq=1:1.00 / nal_hrd=none
Язык : English

Аудио #1
Идентификатор : 2
Формат : DTS
Формат/Информация : Digital Theater Systems
Идентификатор кодека : A_DTS
Продолжительность : 1 ч. 43 м.
Вид битрейта : Постоянный
Битрейт : 1510 Кбит/сек
Каналы : 6 каналов
Расположение каналов : Front: L C R, Side: L R, LFE
Частота : 48,0 КГц
Битовая глубина : 16 бит
Метод сжатия : С потерями
Размер потока : 1,10 Гбайт (12%)
Заголовок : Dubbed
Язык : Russian

Аудио #2
Идентификатор : 3
Формат : AC-3
Формат/Информация : Audio Coding 3
Расширение режима : CM (complete main)
Идентификатор кодека : A_AC3
Продолжительность : 1 ч. 43 м.
Вид битрейта : Постоянный
Битрейт : 640 Кбит/сек
Каналы : 6 каналов
Расположение каналов : Front: L C R, Side: L R, LFE
Частота : 48,0 КГц
Битовая глубина : 16 бит
Метод сжатия : С потерями
Размер потока : 475 Мбайт (5%)
Заголовок : Original
Язык : French
Download

Скачать (бесплатно и на максимальной скорости)!

Как скачивать  ·   Что такое torrent (торрент)  ·   Рейтинг и ограничения

Сайт не распространяет и не хранит электронные версии произведений, а лишь предоставляет доступ к создаваемому пользователями каталогу ссылок на торрент-файлы, которые содержат только списки хеш-сумм


 

O.S.A.


post 18-Дек-2013 11:29

 

Восстановлен 18.12.13.
 
Показать сообщения:    
Ответить на тему

Текущее время: 24-Фев 01:26

Часовой пояс: GMT + 3



Вы не можете начинать темы
Вы не можете отвечать на сообщения
Вы не можете редактировать свои сообщения
Вы не можете удалять свои сообщения
Вы не можете голосовать в опросах
Вы не можете прикреплять файлы к сообщениям
Вы не можете скачивать файлы



В начало страницы  •