Loading...
Error
Регистрация  · 
Имя: Пароль:    
 ·  Забыли пароль?
Правила пользования ресурсом

Сегодня идет свободное скачивание без начисления скачанного

Внутри человеческого тела [01-04 из 4] / BBC: Inside the Human Body (Гидеон Брэдшоу, Нат Шарман) [2011 г., Документальный, BDRip 720p]

Ответить на тему
 
Автор Сообщение

O.S.A.


post 10-Июн-2012 19:39

 

Внутри человеческого тела [01-04 из 4] / BBC: Inside the Human Body

Год выпуска: 2011
Страна: Великобритания / BBC
Жанр: Документальный
Продолжительность: 4 x ~00:50:03
Перевод: Профессиональный (одноголосый закадровый) [Александр Напарин]

Режиссер: Гидеон Брэдшоу, Нат Шарман

В ролях: Кристофер Коттон, Майкл Дж. Мосли

Описание: Этот сериал рассказывает о внутреннем мире человеческого тела. Используется эффектная графика, основанная на новейших достижениях науки. Майкл Мосли приглашает нас в фантастическое путешествие по нашей внутренней вселенной.




Качество: BDRip 720p
Формат: MKV
Видео кодек: x264
Аудио кодек: AC3
Видео: 1280х720 (1.78:1), 25.000 fps, x264 AVC, ~4620 kbps avg, 0.21 bit/pixel
Аудио #1: [Русский] 48.0 kHz, AC3, 2 (L R) ch, ~128.00 kbps avg
Аудио #2: [English] 48.0 kHz, AC3, 2 (L R) ch, ~256.00 kbps avg
Аудио #3: [German] 48.0 kHz, AC3, 2 (L R) ch, ~256.00 kbps avg
Субтитры: Нет
Майкл Мосли расскажет о последовательности биологических событий, которые приводят к человеческому рождению. Прекрасная компьютерная графика продемонстрирует нам события, которые происходят в организме матери от момента зачатия до момента рождения, от опасной гонки миллионов сперматозоидов к яйцеклетке и до первых делящихся клеток эмбриона. Мы будем наблюдать за парой, ожидающую тройню, а также познакомимся с самыми старыми в мире сиамскими близнецами.
Майкл Мосли показывает, как тело выполняет бесчисленные маленькие чудеса, чтобы остаться в живых. Мы будем свидетелями родов в воде, познакомимся со строением кровеносных сосудов и сердца, а также встретимся с людьми, чье тело адаптировалось к экстремальным условиям - с Гербертом Ницшем, чемпионом по фридайвингу, который может задерживать дыхание на 9 минут, с Вимом Хофом, известным более как «Ледяной человек», и имеющего 9 мировых рекордов морозоустойчивости, и Дебби Тейлор, которая последние 10 лет питается только чипсами...
О развитие мозга от рождения до совершеннолетия. Мы увидим девочку в возрасте одного года, Анжелину Мессинхем, страдающую редким заболеванием - болезнью Стерджа-Вебера. Врачам пришлось удалить ей половину мозга. Узнаем, как учатся видеть под водой мокены, группа цыган из Австронезии. А также узнаем, какие изменения происходят в головном мозге и почему подростки склонны к риску и непродуманным, с точки зрения взрослых, поступкам.
Майкл Мосли рассказывает об эффективных способах защиты, которые использует наше тело против враждебного мира, где солнечный свет разрушает наше ДНК и каждый вдох содержит микробы, которые могут убить. Мы познакомимся с чемпионом в одном из самых опасных опасных видов спорта, прыжкам через быка, узнаем, почему работа велокурьера так опасна и как была проведена успешная операция по пересадке целой конечности...
Complete name : Zagadki.nashego.organizma.01.Sotvorenie.2011.x264.BDRip(720p)_DaVinci.mkv
Format : Matroska
Format version : Version 2
File size : 1.87 GiB
Duration : 50mn 3s
Overall bit rate : 5 362 Kbps
Encoded date : UTC 2012-06-08 14:32:51
Writing application : mkvmerge v3.2.0 ('Beginnings') built on Feb 12 2010 16:46:17
Writing library : libebml v0.7.9 + libmatroska v0.8.1

Video
ID : 1
Format : AVC
Format/Info : Advanced Video Codec
Format profile : [email protected]
Format settings, CABAC : Yes
Format settings, ReFrames : 5 frames
Codec ID : V_MPEG4/ISO/AVC
Duration : 50mn 3s
Bit rate : 4 720 Kbps
Width : 1 280 pixels
Height : 720 pixels
Display aspect ratio : 16:9
Frame rate : 25.000 fps
Color space : YUV
Chroma subsampling : 4:2:0
Bit depth : 8 bits
Scan type : Progressive
Bits/(Pixel*Frame) : 0.205
Stream size : 1.61 GiB (86%)
Writing library : x264 core 122 r2184 5c85e0a
Encoding settings : cabac=1 / ref=5 / deblock=1:0:0 / analyse=0x3:0x133 / me=umh / subme=7 / psy=1 / psy_rd=1.00:0.00 / mixed_ref=1 / me_range=16 / chroma_me=1 / trellis=1 / 8x8dct=1 / cqm=0 / deadzone=21,11 / fast_pskip=0 / chroma_qp_offset=-2 / threads=12 / sliced_threads=0 / nr=0 / decimate=1 / interlaced=0 / bluray_compat=0 / constrained_intra=0 / bframes=3 / b_pyramid=2 / b_adapt=2 / b_bias=0 / direct=3 / weightb=1 / open_gop=0 / weightp=2 / keyint=250 / keyint_min=25 / scenecut=40 / intra_refresh=0 / rc_lookahead=50 / rc=2pass / mbtree=1 / bitrate=4720 / ratetol=1.0 / qcomp=0.60 / qpmin=0 / qpmax=69 / qpstep=4 / cplxblur=20.0 / qblur=0.5 / ip_ratio=1.40 / aq=1:1.00
Language : English
Default : No
Forced : No

Audio #1
ID : 2
Format : AC-3
Format/Info : Audio Coding 3
Mode extension : CM (complete main)
Codec ID : A_AC3
Duration : 50mn 3s
Bit rate mode : Constant
Bit rate : 128 Kbps
Channel(s) : 2 channels
Channel positions : Front: L R
Sampling rate : 48.0 KHz
Bit depth : 16 bits
Compression mode : Lossy
Stream size : 45.8 MiB (2%)
Title : zagadki.nawego.organizma_01_by_nyctalus_for_R.G.DaVinci
Language : Russian
Default : Yes
Forced : Yes

Audio #2
ID : 3
Format : AC-3
Format/Info : Audio Coding 3
Mode extension : CM (complete main)
Codec ID : A_AC3
Duration : 50mn 3s
Bit rate mode : Constant
Bit rate : 256 Kbps
Channel(s) : 2 channels
Channel positions : Front: L R
Sampling rate : 48.0 KHz
Bit depth : 16 bits
Compression mode : Lossy
Stream size : 91.6 MiB (5%)
Title : inside.the.human.body_01_bkd
Language : English
Default : No
Forced : No

Audio #3
ID : 4
Format : AC-3
Format/Info : Audio Coding 3
Mode extension : CM (complete main)
Codec ID : A_AC3
Duration : 50mn 3s
Bit rate mode : Constant
Bit rate : 256 Kbps
Channel(s) : 2 channels
Channel positions : Front: L R
Sampling rate : 48.0 KHz
Bit depth : 16 bits
Compression mode : Lossy
Stream size : 91.6 MiB (5%)
Title : Der Menschliche Korper 01
Language : German
Default : No
Forced : No

Complete name : Zagadki.nashego.organizma.02.Ot.nachala.i.do.konca.2011.x264.BDRip(720p)_DaVinci.mkv
Format : Matroska
Format version : Version 2
File size : 1.89 GiB
Duration : 48mn 5s
Overall bit rate : 5 614 Kbps
Encoded date : UTC 2012-06-08 15:14:34
Writing application : mkvmerge v3.2.0 ('Beginnings') built on Feb 12 2010 16:46:17
Writing library : libebml v0.7.9 + libmatroska v0.8.1

Video
ID : 1
Format : AVC
Format/Info : Advanced Video Codec
Format profile : [email protected]
Format settings, CABAC : Yes
Format settings, ReFrames : 5 frames
Codec ID : V_MPEG4/ISO/AVC
Duration : 48mn 5s
Bit rate : 4 975 Kbps
Width : 1 280 pixels
Height : 720 pixels
Display aspect ratio : 16:9
Frame rate : 25.000 fps
Color space : YUV
Chroma subsampling : 4:2:0
Bit depth : 8 bits
Scan type : Progressive
Bits/(Pixel*Frame) : 0.216
Stream size : 1.63 GiB (87%)
Writing library : x264 core 122 r2184 5c85e0a
Encoding settings : cabac=1 / ref=5 / deblock=1:0:0 / analyse=0x3:0x133 / me=umh / subme=7 / psy=1 / psy_rd=1.00:0.00 / mixed_ref=1 / me_range=16 / chroma_me=1 / trellis=1 / 8x8dct=1 / cqm=0 / deadzone=21,11 / fast_pskip=0 / chroma_qp_offset=-2 / threads=12 / sliced_threads=0 / nr=0 / decimate=1 / interlaced=0 / bluray_compat=0 / constrained_intra=0 / bframes=3 / b_pyramid=2 / b_adapt=2 / b_bias=0 / direct=3 / weightb=1 / open_gop=0 / weightp=2 / keyint=250 / keyint_min=25 / scenecut=40 / intra_refresh=0 / rc_lookahead=50 / rc=2pass / mbtree=1 / bitrate=4975 / ratetol=1.0 / qcomp=0.60 / qpmin=0 / qpmax=69 / qpstep=4 / cplxblur=20.0 / qblur=0.5 / ip_ratio=1.40 / aq=1:1.00
Language : English
Default : No
Forced : No

Audio #1
ID : 2
Format : AC-3
Format/Info : Audio Coding 3
Mode extension : CM (complete main)
Codec ID : A_AC3
Duration : 48mn 5s
Bit rate mode : Constant
Bit rate : 128 Kbps
Channel(s) : 2 channels
Channel positions : Front: L R
Sampling rate : 48.0 KHz
Bit depth : 16 bits
Compression mode : Lossy
Stream size : 44.0 MiB (2%)
Title : zagadki.nawego.organizma_02_by_nyctalus_for_R.G.DaVinci
Language : Russian
Default : Yes
Forced : Yes

Audio #2
ID : 3
Format : AC-3
Format/Info : Audio Coding 3
Mode extension : CM (complete main)
Codec ID : A_AC3
Duration : 48mn 5s
Bit rate mode : Constant
Bit rate : 256 Kbps
Channel(s) : 2 channels
Channel positions : Front: L R
Sampling rate : 48.0 KHz
Bit depth : 16 bits
Compression mode : Lossy
Stream size : 88.0 MiB (5%)
Title : inside.the.human.body_02_bkd
Language : English
Default : No
Forced : No

Audio #3
ID : 4
Format : AC-3
Format/Info : Audio Coding 3
Mode extension : CM (complete main)
Codec ID : A_AC3
Duration : 48mn 5s
Bit rate mode : Constant
Bit rate : 256 Kbps
Channel(s) : 2 channels
Channel positions : Front: L R
Sampling rate : 48.0 KHz
Bit depth : 16 bits
Compression mode : Lossy
Stream size : 88.0 MiB (5%)
Title : Der Menschliche Korper 02
Language : German
Default : No
Forced : No

Complete name : Zagadki.nashego.organizma.03.Formirovanie.mozga.2011.x264.BDRip(720p)_DaVinci.mkv
Format : Matroska
Format version : Version 2
File size : 1.87 GiB
Duration : 50mn 26s
Overall bit rate : 5 313 Kbps
Encoded date : UTC 2012-06-08 14:04:48
Writing application : mkvmerge v3.2.0 ('Beginnings') built on Feb 12 2010 16:46:17
Writing library : libebml v0.7.9 + libmatroska v0.8.1

Video
ID : 1
Format : AVC
Format/Info : Advanced Video Codec
Format profile : [email protected]
Format settings, CABAC : Yes
Format settings, ReFrames : 5 frames
Codec ID : V_MPEG4/ISO/AVC
Duration : 50mn 26s
Bit rate : 4 673 Kbps
Width : 1 280 pixels
Height : 720 pixels
Display aspect ratio : 16:9
Frame rate : 25.000 fps
Color space : YUV
Chroma subsampling : 4:2:0
Bit depth : 8 bits
Scan type : Progressive
Bits/(Pixel*Frame) : 0.203
Stream size : 1.61 GiB (86%)
Writing library : x264 core 122 r2184 5c85e0a
Encoding settings : cabac=1 / ref=5 / deblock=1:0:0 / analyse=0x3:0x133 / me=umh / subme=7 / psy=1 / psy_rd=1.00:0.00 / mixed_ref=1 / me_range=16 / chroma_me=1 / trellis=1 / 8x8dct=1 / cqm=0 / deadzone=21,11 / fast_pskip=0 / chroma_qp_offset=-2 / threads=12 / sliced_threads=0 / nr=0 / decimate=1 / interlaced=0 / bluray_compat=0 / constrained_intra=0 / bframes=3 / b_pyramid=2 / b_adapt=2 / b_bias=0 / direct=3 / weightb=1 / open_gop=0 / weightp=2 / keyint=250 / keyint_min=25 / scenecut=40 / intra_refresh=0 / rc_lookahead=50 / rc=2pass / mbtree=1 / bitrate=4673 / ratetol=1.0 / qcomp=0.60 / qpmin=0 / qpmax=69 / qpstep=4 / cplxblur=20.0 / qblur=0.5 / ip_ratio=1.40 / aq=1:1.00
Language : English
Default : No
Forced : No

Audio #1
ID : 2
Format : AC-3
Format/Info : Audio Coding 3
Mode extension : CM (complete main)
Codec ID : A_AC3
Duration : 50mn 26s
Bit rate mode : Constant
Bit rate : 128 Kbps
Channel(s) : 2 channels
Channel positions : Front: L R
Sampling rate : 48.0 KHz
Bit depth : 16 bits
Compression mode : Lossy
Stream size : 46.2 MiB (2%)
Title : zagadki.nawego.organizma_03_by_nyctalus_for_R.G.DaVinci
Language : Russian
Default : Yes
Forced : Yes

Audio #2
ID : 3
Format : AC-3
Format/Info : Audio Coding 3
Mode extension : CM (complete main)
Codec ID : A_AC3
Duration : 50mn 26s
Bit rate mode : Constant
Bit rate : 256 Kbps
Channel(s) : 2 channels
Channel positions : Front: L R
Sampling rate : 48.0 KHz
Bit depth : 16 bits
Compression mode : Lossy
Stream size : 92.3 MiB (5%)
Title : inside.the.human.body_03_bkd
Language : English
Default : No
Forced : No

Audio #3
ID : 4
Format : AC-3
Format/Info : Audio Coding 3
Mode extension : CM (complete main)
Codec ID : A_AC3
Duration : 50mn 26s
Bit rate mode : Constant
Bit rate : 256 Kbps
Channel(s) : 2 channels
Channel positions : Front: L R
Sampling rate : 48.0 KHz
Bit depth : 16 bits
Compression mode : Lossy
Stream size : 92.3 MiB (5%)
Title : Der Menschliche Korper 03
Language : German
Default : No
Forced : No

Complete name : Zagadki.nashego.organizma.04.Vrawdebnyj.mir.2011.x264.BDRip(720p)_DaVinci.mkv
Format : Matroska
Format version : Version 2
File size : 1.87 GiB
Duration : 50mn 17s
Overall bit rate : 5 331 Kbps
Encoded date : UTC 2012-06-08 14:02:05
Writing application : mkvmerge v3.2.0 ('Beginnings') built on Feb 12 2010 16:46:17
Writing library : libebml v0.7.9 + libmatroska v0.8.1

Video
ID : 1
Format : AVC
Format/Info : Advanced Video Codec
Format profile : [email protected]
Format settings, CABAC : Yes
Format settings, ReFrames : 5 frames
Codec ID : V_MPEG4/ISO/AVC
Duration : 50mn 17s
Bit rate : 4 691 Kbps
Width : 1 280 pixels
Height : 720 pixels
Display aspect ratio : 16:9
Frame rate : 25.000 fps
Color space : YUV
Chroma subsampling : 4:2:0
Bit depth : 8 bits
Scan type : Progressive
Bits/(Pixel*Frame) : 0.204
Stream size : 1.61 GiB (86%)
Writing library : x264 core 122 r2184 5c85e0a
Encoding settings : cabac=1 / ref=5 / deblock=1:0:0 / analyse=0x3:0x133 / me=umh / subme=7 / psy=1 / psy_rd=1.00:0.00 / mixed_ref=1 / me_range=16 / chroma_me=1 / trellis=1 / 8x8dct=1 / cqm=0 / deadzone=21,11 / fast_pskip=0 / chroma_qp_offset=-2 / threads=12 / sliced_threads=0 / nr=0 / decimate=1 / interlaced=0 / bluray_compat=0 / constrained_intra=0 / bframes=3 / b_pyramid=2 / b_adapt=2 / b_bias=0 / direct=3 / weightb=1 / open_gop=0 / weightp=2 / keyint=250 / keyint_min=25 / scenecut=40 / intra_refresh=0 / rc_lookahead=50 / rc=2pass / mbtree=1 / bitrate=4691 / ratetol=1.0 / qcomp=0.60 / qpmin=0 / qpmax=69 / qpstep=4 / cplxblur=20.0 / qblur=0.5 / ip_ratio=1.40 / aq=1:1.00
Language : English
Default : No
Forced : No

Audio #1
ID : 2
Format : AC-3
Format/Info : Audio Coding 3
Mode extension : CM (complete main)
Codec ID : A_AC3
Duration : 50mn 17s
Bit rate mode : Constant
Bit rate : 128 Kbps
Channel(s) : 2 channels
Channel positions : Front: L R
Sampling rate : 48.0 KHz
Bit depth : 16 bits
Compression mode : Lossy
Stream size : 46.0 MiB (2%)
Title : zagadki.nawego.organizma_04_by_nyctalus_for_R.G.DaVinci
Language : Russian
Default : Yes
Forced : Yes

Audio #2
ID : 3
Format : AC-3
Format/Info : Audio Coding 3
Mode extension : CM (complete main)
Codec ID : A_AC3
Duration : 50mn 17s
Bit rate mode : Constant
Bit rate : 256 Kbps
Channel(s) : 2 channels
Channel positions : Front: L R
Sampling rate : 48.0 KHz
Bit depth : 16 bits
Compression mode : Lossy
Stream size : 92.1 MiB (5%)
Title : inside.the.human.body_04_bkd
Language : English
Default : No
Forced : No

Audio #3
ID : 4
Format : AC-3
Format/Info : Audio Coding 3
Mode extension : CM (complete main)
Codec ID : A_AC3
Duration : 50mn 17s
Bit rate mode : Constant
Bit rate : 256 Kbps
Channel(s) : 2 channels
Channel positions : Front: L R
Sampling rate : 48.0 KHz
Bit depth : 16 bits
Compression mode : Lossy
Stream size : 92.1 MiB (5%)
Title : Der Menschliche Korper 04
Language : German
Default : No
Forced : No
Download

Скачать (бесплатно и на максимальной скорости)!

Как скачивать  ·   Что такое torrent (торрент)  ·   Рейтинг и ограничения

Сайт не распространяет и не хранит электронные версии произведений, а лишь предоставляет доступ к создаваемому пользователями каталогу ссылок на торрент-файлы, которые содержат только списки хеш-сумм


 

O.S.A.


post 18-Дек-2013 11:16

 

Восстановлен 18.12.13.
 
Показать сообщения:    
Ответить на тему

Текущее время: 18-Авг 23:34

Часовой пояс: GMT + 3



Вы не можете начинать темы
Вы не можете отвечать на сообщения
Вы не можете редактировать свои сообщения
Вы не можете удалять свои сообщения
Вы не можете голосовать в опросах
Вы не можете прикреплять файлы к сообщениям
Вы не можете скачивать файлы



В начало страницы  •