Loading...
Error
Регистрация  · 
Имя: Пароль:    
 ·  Забыли пароль?
Правила пользования ресурсом

Обладатель VIP статуса на 24 часа: nikola120
стань следующим читай правила
Сегодня идет свободное скачивание без начисления скачанного

Чемпионат мира '12, Финал: Россия - Словакия (Канал Спорт 1 - 20.05.2012) [Хоккей, HDTVRip 1080i]

Ответить на тему
 
Автор Сообщение

Demetros


post 21-Май-2012 13:06

 

Чемпионат мира 2012


Вид спорта: Хоккей
Участники: Сборная России против сборной Словакии
Дата/Год выпуска: 20.05.2012
Язык комментариев: Русский
Комментаторы: Сергей Гимаев, Александр Ткачев
Описание: Финал Чемпионата мира
(Включая церемонию награждения)
Собственный рип.
Канал: СПОРТ1
Качество: HDTVRip 1080i
Формат видео: TS
Виде кодек :MPEG-TS
Аудио кодек :MPEG 1
Видео: MPEG-TS, 1920х1080 (16:9), 25 fps, 14,3 Mbps
Аудио: MPEG, stereo, 48 KHz, 192 kbps
2:02:07
Общее
Идентификатор : 1 (0x1)
Полное имя : D:\20.05.2012-RUS-SVK.ts
Формат : MPEG-TS
Размер файла : 13,0 Гбайт
Продолжительность : 2 ч. 2 м.
Общий поток : 15,3 Мбит/сек
Видео
Идентификатор : 303 (0x12F)
Идентификатор меню : 1 (0x1)
Формат : AVC
Формат/Информация : Advanced Video Codec
Профиль формата : [email protected]
Параметр CABAC формата : Да
Параметр ReFrames формата : 3 кадра
Идентификатор кодека : 27
Продолжительность : 2 ч. 2 м.
Битрейт : 14,3 Мбит/сек
Ширина : 1920 пикселей
Высота : 1080 пикселей
Соотношение сторон : 16:9
Частота кадров : 25,000 кадров/сек
Стандарт вещания : Component
Цветовое пространство : YUV
Субдискретизация насыщенности : 4:2:0
Битовая глубина : 8 бит
Тип развёртки : Чересстрочная
Порядок развёртки : Верхнее поле первое
Бит/(Пиксели*Кадры) : 0.276
Размер потока : 12,2 Гбайт (94%)
Основные цвета : BT.709-5, BT.1361, IEC 61966-2-4, SMPTE RP177
Характеристики трансфера : BT.709-5, BT.1361
Коэффициенты матрицы : BT.709-5, BT.1361, IEC 61966-2-4 709, SMPTE RP177
Аудио
Идентификатор : 403 (0x193)
Идентификатор меню : 1 (0x1)
Формат : MPEG Audio
Версия формата : Version 1
Профиль формата : Layer 2
Идентификатор кодека : 3
Продолжительность : 2 ч. 2 м.
Вид битрейта : Постоянный
Битрейт : 192 Кбит/сек
Каналы : 2 канала
Частота : 48,0 КГц
Метод сжатия : С потерями
Размер потока : 168 Мбайт (1%)
Язык : Russian
Download

Скачать (бесплатно и на максимальной скорости)!

Как скачивать  ·   Что такое torrent (торрент)  ·   Рейтинг и ограничения

Сайт не распространяет и не хранит электронные версии произведений, а лишь предоставляет доступ к создаваемому пользователями каталогу ссылок на торрент-файлы, которые содержат только списки хеш-сумм


 
Показать сообщения:    
Ответить на тему

Текущее время: 22-Сен 23:13

Часовой пояс: GMT + 3



Вы не можете начинать темы
Вы не можете отвечать на сообщения
Вы не можете редактировать свои сообщения
Вы не можете удалять свои сообщения
Вы не можете голосовать в опросах
Вы не можете прикреплять файлы к сообщениям
Вы не можете скачивать файлы



В начало страницы  •