Loading...
Error
Регистрация  · 
Имя: Пароль:    
 ·  Забыли пароль?
Правила пользования ресурсом

Обладатель VIP статуса на 24 часа: nikola120
стань следующим читай правила
Сегодня идет свободное скачивание без начисления скачанного

BBC: Невидимые миры / Richard Hammond's Invisible Worlds (серии 3 из 3) [2010 г., Документальный, научно-популярный, BDRip 720p]

Ответить на тему
 
Автор Сообщение

digitex


post 14-Апр-2012 15:49

 




________________________________
Год выпуска: 2010
Страна: British Broadcasting Corporation (BBC)
Жанр: Документальный, научно-популярный
Продолжительность: 00:59:21+00:58:54+00:58:22 мин
________________________________
Перевод: Профессиональный (многоголосный закадровый)+ Английская дорожка
Русские Субтитры: Да
В ролях: Ричард Хаммонд
________________________________
Описание:
Человеческий глаз - один из самых могущественных инструментов на свете. Но то, что он видит - неполная картина. Бок о бок со знакомым нам миром есть совсем другой мир. Невидимый мир. Он влияет на все аспекты жизни на земле. C помощью современной техники создатели этого научно-популярного фильма смогли проникнуть в этот тайный мир, раскрыть его секреты и показать истинные чудеса мира в котором мы живем.
________________________________
Качество: BDRip
Формат: MKV
Видео кодек: H.264
Аудио кодек: AC3
Видео: MPEG4 Video (H264) 1280x720 25fps [Undetermined, Encoded by GYN (Video 1) [Default]]
Аудио: Dolby AC3 48000Hz stereo [Russian, VO (Audio 1) [Default]]
Аудио: Dolby AC3 48000Hz stereo [English (Audio 2)]
Субтитры: UTF-8 [Russian (Subtitle 1)]



General
Unique ID : 200075500888816385083083378165351183553 (0x968523CBE630F86DB3D6717BEBD3F4C1)
Complete name : E:\Торренты\Невидимые миры BBC\BBC. Невидимые миры. S01E01. Ограничения скорости.mkv
Format : Matroska
Format version : Version 2
File size : 2.91 GiB
Duration : 58mn 54s
Overall bit rate mode : Variable
Overall bit rate : 7 078 Kbps
Movie name : Richard Hammond's Invisible Worlds (Episode 1: Speed Limits) (2010)
Encoded date : UTC 2012-02-05 09:43:15
Writing application : mkvmerge v3.3.0 ('Language') built on Mar 24 2010 14:59:24
Writing library : libebml v0.8.0 + libmatroska v0.9.0

Video
ID : 1
Format : AVC
Format/Info : Advanced Video Codec
Format profile : [email protected]
Format settings, CABAC : Yes
Format settings, ReFrames : 6 frames
Codec ID : V_MPEG4/ISO/AVC
Duration : 58mn 54s
Bit rate mode : Variable
Bit rate : 6 489 Kbps
Maximum bit rate : 6 357 Kbps
Width : 1 280 pixels
Height : 720 pixels
Display aspect ratio : 16:9
Frame rate : 25.000 fps
Color space : YUV
Chroma subsampling : 4:2:0
Bit depth : 8 bits
Scan type : Progressive
Bits/(Pixel*Frame) : 0.282
Stream size : 2.67 GiB (92%)
Title : Encoded by GYN
Default : Yes
Forced : No

Audio #1
ID : 2
Format : AC-3
Format/Info : Audio Coding 3
Format profile : Dolby Digital
Mode extension : CM (complete main)
Codec ID : A_AC3
Duration : 58mn 54s
Bit rate mode : Constant
Bit rate : 224 Kbps
Channel(s) : 2 channels
Channel positions : Front: L R
Sampling rate : 48.0 KHz
Bit depth : 16 bits
Compression mode : Lossy
Stream size : 94.4 MiB (3%)
Title : VO
Language : Russian
Default : Yes
Forced : No

Audio #2
ID : 3
Format : AC-3
Format/Info : Audio Coding 3
Format profile : Dolby Digital
Mode extension : CM (complete main)
Codec ID : A_AC3
Duration : 58mn 54s
Bit rate mode : Constant
Bit rate : 224 Kbps
Channel(s) : 2 channels
Channel positions : Front: L R
Sampling rate : 48.0 KHz
Bit depth : 16 bits
Compression mode : Lossy
Stream size : 94.4 MiB (3%)
Language : English
Default : No
Forced : No

Text
ID : 4
Format : UTF-8
Codec ID : S_TEXT/UTF8
Codec ID/Info : UTF-8 Plain Text
Language : Russian
Default : No
Forced : No


Download

Скачать (бесплатно и на максимальной скорости)!

Как скачивать  ·   Что такое torrent (торрент)  ·   Рейтинг и ограничения

Сайт не распространяет и не хранит электронные версии произведений, а лишь предоставляет доступ к создаваемому пользователями каталогу ссылок на торрент-файлы, которые содержат только списки хеш-сумм


 
Показать сообщения:    
Ответить на тему

Текущее время: 18-Сен 09:42

Часовой пояс: GMT + 3



Вы не можете начинать темы
Вы не можете отвечать на сообщения
Вы не можете редактировать свои сообщения
Вы не можете удалять свои сообщения
Вы не можете голосовать в опросах
Вы не можете прикреплять файлы к сообщениям
Вы не можете скачивать файлы



В начало страницы  •