Loading...
Error
Регистрация  · 
Имя: Пароль:    
 ·  Забыли пароль?
Правила пользования ресурсом

Обладатель VIP статуса на 24 часа: nikola120
стань следующим читай правила
Сегодня идет свободное скачивание без начисления скачанного

Доктор Хаус / House M.D. / Сезон: 8 / Серии: 1-16 из 22 (Грег Яйтанис) [2011-2012 гг., Медицина, комедия, драма, детектив, WEB-DLRip]

Ответить на тему
 
Автор Сообщение

nIcRon


post 11-Апр-2012 22:29

 

House M.D.
Season 8


Год выпуска: 2011-2012
Страна: США | FOX
Жанр: медицина, комедия, драма, детектив
Продолжительность: ~ 00:43:00
Субтитры: отсутствуют
Перевод: Профессиональный (многоголосый, закадровый) [LostFilm]
Режиссёр: Грег Яйтанис

В ролях: Хью Лори, Роберт Шон Леонард, Омар Эппс, Джесси Спенсер, Питер Джекобсон, Оливия Уайлд, Шарлин Йи, Одетт Эннэйбл и др.

Описание: Доктор Грегори Хаус — главный герой, вокруг которого и разворачиваются главные события. Предстает он перед пациентами, коллегами в основном мерзким типом, который всем видом пытается показать, что он не изменится. Он плюёт на правила и запреты, он груб, циничен, хитёр и играет жизнями пациентов, он будет всё время стоять на своём. Но отрицательные качества затмеваются тем, что он превосходный врач. Хаус будто военный лётчик, который за сбитый самолёт приклеивает звезду на самолёт, только в данном случае вместо сбитого самолёта — вылеченный пациент. Он осознаёт это, и поэтому ведёт себя так, как ведёт. Хаус не носит медицинский халат, принимает викодин у всех на глазах, ничего не стесняясь, и он будет таким, и никто не в силах его отучить от всех его «штучек».
Иногда бывают моменты, когда Хаус на время становится серьёзным и задумчивым, но позже всё возвращается на свои места, он опять становится прежним.

Качество: WEB-DLRip
Формат: AVI
Видео кодек: XviD
Аудио кодек: MP3
Видео: 720x400, 23.976 fps, 1172 kbps, 0.17 bit/pixel
Аудио: 48 kHz, 2 ch, 192 kbps
Релиз:
Мед. консультант: М.А.Ткаченко
Озвучка: Студия «Кравец»




[03.10.2011] 01. «Twenty Vicodin» (рус. «Двадцать таблеток викодина»)
[10.10.2011] 02. «Transplant» (рус. «Трансплантат»)
[17.10.2011] 03. «Charity Case» (рус. «Дела благотворительные»)
[31.10.2011] 04. «Risky Business» (рус. «Рисковое дело»)
[07.11.2011] 05. «The Confession» (рус. «Исповедь»)
[14.11.2011] 06. «Parents» (рус. «Родители»)
[21.11.2011] 07. «Dead & Buried» (рус. «Мертвы и похоронены»)
[28.11.2011] 08. «Perils of Paranoia» (рус. «Опасности Паранойи»)
[23.01.2012] 09. «Better Half» (рус. «Лучшая Половина»)
[30.01.2012] 10. «Runaways» (рус. «Беглецы»)
[06.02.2012] 11. «Nobody's Fault» (рус. «Никто не виноват»)
[13.02.2012] 12. «Chase» (рус. «Чейз»)
[20.02.2012] 13. «Man of the House» (рус. «Человек Хауса»)
[27.02.2012] 14. «Love is Blind» (рус. «Любовь слепа»)
[02.04.2012] 15. «Blowing the Whistle» (рус. «Измена»)
[09.04.2012] 16. «Gut Check» (рус. «Проверка на вшивость»)

coming up next
[16.04.2012] 17. «We Need the Eggs» (рус. «Нужно быть мужиками»)

Код:

General
Complete name                    : D:\House M.D. - Season 8 (LostFilm)\House.M.D.s08e01.rus.LostFilm.TV.avi
Format                           : AVI
Format/Info                      : Audio Video Interleave
File size                        : 433 MiB
Duration                         : 44mn 5s
Overall bit rate                 : 1 373 Kbps
Writing application              : Nandub v1.0rc2
Writing library                  : Nandub build 1853/release

Video
ID                               : 0
Format                           : MPEG-4 Visual
Format profile                   : [email protected]
Format settings, BVOP            : No
Format settings, QPel            : No
Format settings, GMC             : No warppoints
Format settings, Matrix          : Default (H.263)
Codec ID                         : XVID
Codec ID/Hint                    : XviD
Duration                         : 44mn 5s
Bit rate                         : 1 172 Kbps
Width                            : 720 pixels
Height                           : 400 pixels
Display aspect ratio             : 16:9
Frame rate                       : 23.976 fps
Color space                      : YUV
Chroma subsampling               : 4:2:0
Bit depth                        : 8 bits
Scan type                        : Progressive
Compression mode                 : Lossy
Bits/(Pixel*Frame)               : 0.170
Stream size                      : 370 MiB (85%)
Writing library                  : XviD 1.2.1 (UTC 2008-12-04)

Audio
ID                               : 1
Format                           : MPEG Audio
Format version                   : Version 1
Format profile                   : Layer 3
Mode                             : Joint stereo
Mode extension                   : MS Stereo
Codec ID                         : 55
Codec ID/Hint                    : MP3
Duration                         : 44mn 5s
Bit rate mode                    : Variable
Bit rate                         : 192 Kbps
Channel(s)                       : 2 channels
Sampling rate                    : 48.0 KHz
Compression mode                 : Lossy
Stream size                      : 59.3 MiB (14%)
Alignment                        : Aligned on interleaves
Interleave, duration             : 24 ms (0.58 video frame)
Interleave, preload duration     : 467 ms
Writing library                  : LAME3.97b
Encoding settings                : -m j -V 4 -q 3 -lowpass 18.6 --abr 192
Раздача ведётся путём добавления новых серий; при каждом добавлении создаётся новый торрент. Чтобы начать докачку новой серии, пользователям необходимо сделать следующее:
(1) остановить скачивание,
(2) удалить старый торрент у себя из клиента (старые серии удалять не надо),
(3) скачать новый торрент и запустить его у себя в клиенте вместо старого, при этом указать клиенту путь в старую папку куда и должно происходить скачивание новых серий.

Ваш клиент при этом должен произвести хеширование (проверку) старой папки (если не производит сам - помогите ему сделать это), и будет докачивать только те серии которых у вас ещё нет. Старые серии при этом не удаляются, а продолжают раздаваться!

Eсли вы уже удалили старые серии, то предотвратить повторную закачку старых серий можно, отжав галочку в соответствующих местах при запуске нового торрента. По возможности, желательно не удалять старые серии как можно дольше чтобы релизёр не столько продолжал раздавать старые серии, а смог сконцентрироваться на новых.
Download

Скачать (бесплатно и на максимальной скорости)!

Как скачивать  ·   Что такое torrent (торрент)  ·   Рейтинг и ограничения

Сайт не распространяет и не хранит электронные версии произведений, а лишь предоставляет доступ к создаваемому пользователями каталогу ссылок на торрент-файлы, которые содержат только списки хеш-сумм


 
Показать сообщения:    
Ответить на тему

Текущее время: 18-Сен 19:05

Часовой пояс: GMT + 3



Вы не можете начинать темы
Вы не можете отвечать на сообщения
Вы не можете редактировать свои сообщения
Вы не можете удалять свои сообщения
Вы не можете голосовать в опросах
Вы не можете прикреплять файлы к сообщениям
Вы не можете скачивать файлы



В начало страницы  •