Loading...
Error
Регистрация  · 
Имя: Пароль:    
 ·  Забыли пароль?
Правила пользования ресурсом

До Нового года осталось:
Обладатель VIP статуса на 24 часа: nikola120
стань следующим читай правила
Сегодня идет свободное скачивание без начисления скачанного

(Author song) Булат Окуджава - Лучшее - 2012, DTS Upmix (dts tracks), 1411 kbps

Ответить на тему
 
Автор Сообщение

cataman


post 20-Фев-2012 19:14

 

Булат Окуджава - Лучшее


Страна: Россия | Жанр: Author song | Год выпуска: 2012 | Формат: DTS Upmix | Битрейт аудио: 1411 kbps | Тип рипа: dts tracks Продолжительность: 00:49:50

Трэклист

01 Бумажный солдат
02 Грузинская песня
03 На фоне Пушкина снимается семейство
04 Песенка об Арбате
05 Арбатский эмигрант
06 Батальное полотно
07 Надпись на камне
08 Ворон
09 Исторический роман
10 Молодой гусар
11 Дальняя дорога
12 Заезжий музыкант
13 Музыкант
14 На сретенке ночной
15 Короткая песенка
16 Отъезд
17 Новое утро
18 Юнкера
19 Надежды маленький оркестрик
20 Молитва

Код:

Общее
Полное имя                               : H:\Multichannel Music\Bulat Okudjava - Luchshee 2012 [DTS 5.1]\01 - Бумажный солдат.dts
Формат                                   : DTS
Формат/Информация                        : Digital Theater Systems
Размер файла                             : 29,5 Мбайт
Продолжительность                        : 2 м. 55 с.
Режим общего битрейта                    : Постоянный
Общий поток                              : 1411 Кбит/сек

Аудио
Формат                                   : DTS
Формат/Информация                        : Digital Theater Systems
Продолжительность                        : 2 м. 55 с.
Вид битрейта                             : Постоянный
Битрейт                                  : 1411,2 Кбит/сек
Каналы                                   : 6 каналов
Расположение каналов                     : Front: L C R, Side: L R, LFE
Частота                                  : 44,1 КГц
Битовая глубина                          : 16 бит
Метод сжатия                             : С потерями
Размер потока                            : 29,5 Мбайт

Общее
Полное имя                               : H:\Multichannel Music\Bulat Okudjava - Luchshee 2012 [DTS 5.1]\02 - Грузинская песня.dts
Формат                                   : DTS
Формат/Информация                        : Digital Theater Systems
Размер файла                             : 51,5 Мбайт
Продолжительность                        : 5 м. 5 с.
Режим общего битрейта                    : Постоянный
Общий поток                              : 1411 Кбит/сек

Аудио
Формат                                   : DTS
Формат/Информация                        : Digital Theater Systems
Продолжительность                        : 5 м. 5 с.
Вид битрейта                             : Постоянный
Битрейт                                  : 1411,2 Кбит/сек
Каналы                                   : 6 каналов
Расположение каналов                     : Front: L C R, Side: L R, LFE
Частота                                  : 44,1 КГц
Битовая глубина                          : 16 бит
Метод сжатия                             : С потерями
Размер потока                            : 51,5 Мбайт (100%)

Общее
Полное имя                               : H:\Multichannel Music\Bulat Okudjava - Luchshee 2012 [DTS 5.1]\03 - На фоне Пушкина снимается семейство.dts
Формат                                   : DTS
Формат/Информация                        : Digital Theater Systems
Размер файла                             : 63,0 Мбайт
Продолжительность                        : 6 м. 14 с.
Режим общего битрейта                    : Постоянный
Общий поток                              : 1411 Кбит/сек

Аудио
Формат                                   : DTS
Формат/Информация                        : Digital Theater Systems
Продолжительность                        : 6 м. 14 с.
Вид битрейта                             : Постоянный
Битрейт                                  : 1411,2 Кбит/сек
Каналы                                   : 6 каналов
Расположение каналов                     : Front: L C R, Side: L R, LFE
Частота                                  : 44,1 КГц
Битовая глубина                          : 16 бит
Метод сжатия                             : С потерями
Размер потока                            : 63,0 Мбайт (100%)

Общее
Полное имя                               : H:\Multichannel Music\Bulat Okudjava - Luchshee 2012 [DTS 5.1]\04 - Песенка об Арбате.dts
Формат                                   : DTS
Формат/Информация                        : Digital Theater Systems
Размер файла                             : 66,1 Мбайт
Продолжительность                        : 6 м. 32 с.
Режим общего битрейта                    : Постоянный
Общий поток                              : 1411 Кбит/сек

Аудио
Формат                                   : DTS
Формат/Информация                        : Digital Theater Systems
Продолжительность                        : 6 м. 32 с.
Вид битрейта                             : Постоянный
Битрейт                                  : 1411,2 Кбит/сек
Каналы                                   : 6 каналов
Расположение каналов                     : Front: L C R, Side: L R, LFE
Частота                                  : 44,1 КГц
Битовая глубина                          : 16 бит
Метод сжатия                             : С потерями
Размер потока                            : 66,1 Мбайт

Общее
Полное имя                               : H:\Multichannel Music\Bulat Okudjava - Luchshee 2012 [DTS 5.1]\05 - Арбатский эмигрант.dts
Формат                                   : DTS
Формат/Информация                        : Digital Theater Systems
Размер файла                             : 71,5 Мбайт
Продолжительность                        : 7 м. 4 с.
Режим общего битрейта                    : Постоянный
Общий поток                              : 1411 Кбит/сек

Аудио
Формат                                   : DTS
Формат/Информация                        : Digital Theater Systems
Продолжительность                        : 7 м. 4 с.
Вид битрейта                             : Постоянный
Битрейт                                  : 1411,2 Кбит/сек
Каналы                                   : 6 каналов
Расположение каналов                     : Front: L C R, Side: L R, LFE
Частота                                  : 44,1 КГц
Битовая глубина                          : 16 бит
Метод сжатия                             : С потерями
Размер потока                            : 71,5 Мбайт

Общее
Полное имя                               : H:\Multichannel Music\Bulat Okudjava - Luchshee 2012 [DTS 5.1]\06 - Батальное полотно.dts
Формат                                   : DTS
Формат/Информация                        : Digital Theater Systems
Размер файла                             : 47,6 Мбайт
Продолжительность                        : 4 м. 43 с.
Режим общего битрейта                    : Постоянный
Общий поток                              : 1411 Кбит/сек

Аудио
Формат                                   : DTS
Формат/Информация                        : Digital Theater Systems
Продолжительность                        : 4 м. 43 с.
Вид битрейта                             : Постоянный
Битрейт                                  : 1411,2 Кбит/сек
Каналы                                   : 6 каналов
Расположение каналов                     : Front: L C R, Side: L R, LFE
Частота                                  : 44,1 КГц
Битовая глубина                          : 16 бит
Метод сжатия                             : С потерями
Размер потока                            : 47,6 Мбайт

Общее
Полное имя                               : H:\Multichannel Music\Bulat Okudjava - Luchshee 2012 [DTS 5.1]\07 - Надпись на камне.dts
Формат                                   : DTS
Формат/Информация                        : Digital Theater Systems
Размер файла                             : 86,6 Мбайт
Продолжительность                        : 8 м. 35 с.
Режим общего битрейта                    : Постоянный
Общий поток                              : 1411 Кбит/сек

Аудио
Формат                                   : DTS
Формат/Информация                        : Digital Theater Systems
Продолжительность                        : 8 м. 35 с.
Вид битрейта                             : Постоянный
Битрейт                                  : 1411,2 Кбит/сек
Каналы                                   : 6 каналов
Расположение каналов                     : Front: L C R, Side: L R, LFE
Частота                                  : 44,1 КГц
Битовая глубина                          : 16 бит
Метод сжатия                             : С потерями
Размер потока                            : 86,6 Мбайт (100%)

Общее
Полное имя                               : H:\Multichannel Music\Bulat Okudjava - Luchshee 2012 [DTS 5.1]\08 - Ворон.dts
Формат                                   : DTS
Формат/Информация                        : Digital Theater Systems
Размер файла                             : 41,2 Мбайт
Продолжительность                        : 4 м. 5 с.
Режим общего битрейта                    : Постоянный
Общий поток                              : 1411 Кбит/сек

Аудио
Формат                                   : DTS
Формат/Информация                        : Digital Theater Systems
Продолжительность                        : 4 м. 5 с.
Вид битрейта                             : Постоянный
Битрейт                                  : 1411,2 Кбит/сек
Каналы                                   : 6 каналов
Расположение каналов                     : Front: L C R, Side: L R, LFE
Частота                                  : 44,1 КГц
Битовая глубина                          : 16 бит
Метод сжатия                             : С потерями
Размер потока                            : 41,2 Мбайт (100%)

Общее
Полное имя                               : H:\Multichannel Music\Bulat Okudjava - Luchshee 2012 [DTS 5.1]\09 - Исторический роман.dts
Формат                                   : DTS
Формат/Информация                        : Digital Theater Systems
Размер файла                             : 76,4 Мбайт
Продолжительность                        : 7 м. 34 с.
Режим общего битрейта                    : Постоянный
Общий поток                              : 1411 Кбит/сек

Аудио
Формат                                   : DTS
Формат/Информация                        : Digital Theater Systems
Продолжительность                        : 7 м. 34 с.
Вид битрейта                             : Постоянный
Битрейт                                  : 1411,2 Кбит/сек
Каналы                                   : 6 каналов
Расположение каналов                     : Front: L C R, Side: L R, LFE
Частота                                  : 44,1 КГц
Битовая глубина                          : 16 бит
Метод сжатия                             : С потерями
Размер потока                            : 76,4 Мбайт (100%)

Общее
Полное имя                               : H:\Multichannel Music\Bulat Okudjava - Luchshee 2012 [DTS 5.1]\10 - Молодой гусар.dts
Формат                                   : DTS
Формат/Информация                        : Digital Theater Systems
Размер файла                             : 107 Мбайт
Продолжительность                        : 10 м.
Режим общего битрейта                    : Постоянный
Общий поток                              : 1411 Кбит/сек

Аудио
Формат                                   : DTS
Формат/Информация                        : Digital Theater Systems
Продолжительность                        : 10 м.
Вид битрейта                             : Постоянный
Битрейт                                  : 1411,2 Кбит/сек
Каналы                                   : 6 каналов
Расположение каналов                     : Front: L C R, Side: L R, LFE
Частота                                  : 44,1 КГц
Битовая глубина                          : 16 бит
Метод сжатия                             : С потерями
Размер потока                            : 107 Мбайт

Общее
Полное имя                               : H:\Multichannel Music\Bulat Okudjava - Luchshee 2012 [DTS 5.1]\11 - Дальняя дорога.dts
Формат                                   : DTS
Формат/Информация                        : Digital Theater Systems
Размер файла                             : 75,0 Мбайт
Продолжительность                        : 7 м. 25 с.
Режим общего битрейта                    : Постоянный
Общий поток                              : 1411 Кбит/сек

Аудио
Формат                                   : DTS
Формат/Информация                        : Digital Theater Systems
Продолжительность                        : 7 м. 25 с.
Вид битрейта                             : Постоянный
Битрейт                                  : 1411,2 Кбит/сек
Каналы                                   : 6 каналов
Расположение каналов                     : Front: L C R, Side: L R, LFE
Частота                                  : 44,1 КГц
Битовая глубина                          : 16 бит
Метод сжатия                             : С потерями
Размер потока                            : 75,0 Мбайт

Общее
Полное имя                               : H:\Multichannel Music\Bulat Okudjava - Luchshee 2012 [DTS 5.1]\12 - Заезжий музыкант.dts
Формат                                   : DTS
Формат/Информация                        : Digital Theater Systems
Размер файла                             : 68,7 Мбайт
Продолжительность                        : 6 м. 48 с.
Режим общего битрейта                    : Постоянный
Общий поток                              : 1411 Кбит/сек

Аудио
Формат                                   : DTS
Формат/Информация                        : Digital Theater Systems
Продолжительность                        : 6 м. 48 с.
Вид битрейта                             : Постоянный
Битрейт                                  : 1411,2 Кбит/сек
Каналы                                   : 6 каналов
Расположение каналов                     : Front: L C R, Side: L R, LFE
Частота                                  : 44,1 КГц
Битовая глубина                          : 16 бит
Метод сжатия                             : С потерями
Размер потока                            : 68,7 Мбайт (100%)

Общее
Полное имя                               : H:\Multichannel Music\Bulat Okudjava - Luchshee 2012 [DTS 5.1]\13 - Музыкант.dts
Формат                                   : DTS
Формат/Информация                        : Digital Theater Systems
Размер файла                             : 67,6 Мбайт
Продолжительность                        : 6 м. 41 с.
Режим общего битрейта                    : Постоянный
Общий поток                              : 1411 Кбит/сек

Аудио
Формат                                   : DTS
Формат/Информация                        : Digital Theater Systems
Продолжительность                        : 6 м. 41 с.
Вид битрейта                             : Постоянный
Битрейт                                  : 1411,2 Кбит/сек
Каналы                                   : 6 каналов
Расположение каналов                     : Front: L C R, Side: L R, LFE
Частота                                  : 44,1 КГц
Битовая глубина                          : 16 бит
Метод сжатия                             : С потерями
Размер потока                            : 67,6 Мбайт (100%)

Общее
Полное имя                               : H:\Multichannel Music\Bulat Okudjava - Luchshee 2012 [DTS 5.1]\14 - На сретенке ночной.dts
Формат                                   : DTS
Формат/Информация                        : Digital Theater Systems
Размер файла                             : 50,7 Мбайт
Продолжительность                        : 5 м. 1 с.
Режим общего битрейта                    : Постоянный
Общий поток                              : 1411 Кбит/сек

Аудио
Формат                                   : DTS
Формат/Информация                        : Digital Theater Systems
Продолжительность                        : 5 м. 1 с.
Вид битрейта                             : Постоянный
Битрейт                                  : 1411,2 Кбит/сек
Каналы                                   : 6 каналов
Расположение каналов                     : Front: L C R, Side: L R, LFE
Частота                                  : 44,1 КГц
Битовая глубина                          : 16 бит
Метод сжатия                             : С потерями
Размер потока                            : 50,7 Мбайт (100%)

Общее
Полное имя                               : H:\Multichannel Music\Bulat Okudjava - Luchshee 2012 [DTS 5.1]\15 - Короткая песенка.dts
Формат                                   : DTS
Формат/Информация                        : Digital Theater Systems
Размер файла                             : 52,9 Мбайт
Продолжительность                        : 5 м. 14 с.
Режим общего битрейта                    : Постоянный
Общий поток                              : 1411 Кбит/сек

Аудио
Формат                                   : DTS
Формат/Информация                        : Digital Theater Systems
Продолжительность                        : 5 м. 14 с.
Вид битрейта                             : Постоянный
Битрейт                                  : 1411,2 Кбит/сек
Каналы                                   : 6 каналов
Расположение каналов                     : Front: L C R, Side: L R, LFE
Частота                                  : 44,1 КГц
Битовая глубина                          : 16 бит
Метод сжатия                             : С потерями
Размер потока                            : 52,9 Мбайт (100%)

Общее
Полное имя                               : H:\Multichannel Music\Bulat Okudjava - Luchshee 2012 [DTS 5.1]\16 - Отъезд.dts
Формат                                   : DTS
Формат/Информация                        : Digital Theater Systems
Размер файла                             : 77,2 Мбайт
Продолжительность                        : 7 м. 38 с.
Режим общего битрейта                    : Постоянный
Общий поток                              : 1411 Кбит/сек

Аудио
Формат                                   : DTS
Формат/Информация                        : Digital Theater Systems
Продолжительность                        : 7 м. 38 с.
Вид битрейта                             : Постоянный
Битрейт                                  : 1411,2 Кбит/сек
Каналы                                   : 6 каналов
Расположение каналов                     : Front: L C R, Side: L R, LFE
Частота                                  : 44,1 КГц
Битовая глубина                          : 16 бит
Метод сжатия                             : С потерями
Размер потока                            : 77,2 Мбайт (100%)

Общее
Полное имя                               : H:\Multichannel Music\Bulat Okudjava - Luchshee 2012 [DTS 5.1]\17 - Новое утро.dts
Формат                                   : DTS
Формат/Информация                        : Digital Theater Systems
Размер файла                             : 55,7 Мбайт
Продолжительность                        : 5 м. 31 с.
Режим общего битрейта                    : Постоянный
Общий поток                              : 1411 Кбит/сек

Аудио
Формат                                   : DTS
Формат/Информация                        : Digital Theater Systems
Продолжительность                        : 5 м. 31 с.
Вид битрейта                             : Постоянный
Битрейт                                  : 1411,2 Кбит/сек
Каналы                                   : 6 каналов
Расположение каналов                     : Front: L C R, Side: L R, LFE
Частота                                  : 44,1 КГц
Битовая глубина                          : 16 бит
Метод сжатия                             : С потерями
Размер потока                            : 55,7 Мбайт (100%)

Общее
Полное имя                               : H:\Multichannel Music\Bulat Okudjava - Luchshee 2012 [DTS 5.1]\18 - Юнкера.dts
Формат                                   : DTS
Формат/Информация                        : Digital Theater Systems
Размер файла                             : 68,5 Мбайт
Продолжительность                        : 6 м. 47 с.
Режим общего битрейта                    : Постоянный
Общий поток                              : 1411 Кбит/сек

Аудио
Формат                                   : DTS
Формат/Информация                        : Digital Theater Systems
Продолжительность                        : 6 м. 47 с.
Вид битрейта                             : Постоянный
Битрейт                                  : 1411,2 Кбит/сек
Каналы                                   : 6 каналов
Расположение каналов                     : Front: L C R, Side: L R, LFE
Частота                                  : 44,1 КГц
Битовая глубина                          : 16 бит
Метод сжатия                             : С потерями
Размер потока                            : 68,5 Мбайт (100%)

Общее
Полное имя                               : H:\Multichannel Music\Bulat Okudjava - Luchshee 2012 [DTS 5.1]\19 - Надежды маленький оркестрик.dts
Формат                                   : DTS
Формат/Информация                        : Digital Theater Systems
Размер файла                             : 55,6 Мбайт
Продолжительность                        : 5 м. 30 с.
Режим общего битрейта                    : Постоянный
Общий поток                              : 1411 Кбит/сек

Аудио
Формат                                   : DTS
Формат/Информация                        : Digital Theater Systems
Продолжительность                        : 5 м. 30 с.
Вид битрейта                             : Постоянный
Битрейт                                  : 1411,2 Кбит/сек
Каналы                                   : 6 каналов
Расположение каналов                     : Front: L C R, Side: L R, LFE
Частота                                  : 44,1 КГц
Битовая глубина                          : 16 бит
Метод сжатия                             : С потерями
Размер потока                            : 55,6 Мбайт

Общее
Полное имя                               : H:\Multichannel Music\Bulat Okudjava - Luchshee 2012 [DTS 5.1]\20 - Молитва.dts
Формат                                   : DTS
Формат/Информация                        : Digital Theater Systems
Размер файла                             : 87,2 Мбайт
Продолжительность                        : 8 м. 38 с.
Режим общего битрейта                    : Постоянный
Общий поток                              : 1411 Кбит/сек

Аудио
Формат                                   : DTS
Формат/Информация                        : Digital Theater Systems
Продолжительность                        : 8 м. 38 с.
Вид битрейта                             : Постоянный
Битрейт                                  : 1411,2 Кбит/сек
Каналы                                   : 6 каналов
Расположение каналов                     : Front: L C R, Side: L R, LFE
Частота                                  : 44,1 КГц
Битовая глубина                          : 16 бит
Метод сжатия                             : С потерями
Размер потока                            : 87,2 Мбайт (100%)
Download

Скачать (бесплатно и на максимальной скорости)!

Как скачивать  ·   Что такое torrent (торрент)  ·   Рейтинг и ограничения

Сайт не распространяет и не хранит электронные версии произведений, а лишь предоставляет доступ к создаваемому пользователями каталогу ссылок на торрент-файлы, которые содержат только списки хеш-сумм


 
Показать сообщения:    
Ответить на тему

Текущее время: 16-Янв 00:24

Часовой пояс: GMT + 3



Вы не можете начинать темы
Вы не можете отвечать на сообщения
Вы не можете редактировать свои сообщения
Вы не можете удалять свои сообщения
Вы не можете голосовать в опросах
Вы не можете прикреплять файлы к сообщениям
Вы не можете скачивать файлы