Loading...
Error
Регистрация  · 
Имя: Пароль:    
 ·  Забыли пароль?
Правила пользования ресурсом

Сегодня идет свободное скачивание без начисления скачанного

(Rock, blues) The Rolling Stones - Sympathy for the Devil (Remixes) - 1968, DTS Upmix (tracks) , 1411 kbps

Ответить на тему
 
Автор Сообщение

cataman


post 17-Фев-2012 18:30

 

The Rolling Stones Sympathy for the Devil (Remix)
Страна: England
Жанр: Rock, blues
Год выпуска: 1968
Формат: DTS Upmix
Битрейт аудио: 1411 kbps
Продолжительность: 00:26:16

Трэклист

01 Sympathy for the Devil (The Neptunes extended remix) 5:56
02 Sympathy for the Devil (Fatboy Slim extended remix) 8:27
03 Sympathy for the Devil (Full Phatt extended remix) 5:35
04 Sympathy for the Devil (Original Rolling Stones version) 6:19

Код:

Общее
Полное имя                               : H:\Multichannel Music\The Rolling Stones - Sympathy for the Devil (Remixes) dts\(01) [The Rolling Stones] Sympathy for the Devil (The Neptunes extended remix).wav
Формат                                   : Wave
Размер файла                             : 59,9 Мбайт
Продолжительность                        : 5 м. 56 с.
Режим общего битрейта                    : Постоянный
Общий поток                              : 1411 Кбит/сек

Аудио
Идентификатор                            : 0
Формат                                   : DTS
Формат/Информация                        : Digital Theater Systems
Параметр Endianness формата              : Little
Режим смешивания                         : LE / 14
Идентификатор кодека                     : 1
Продолжительность                        : 5 м. 56 с.
Вид битрейта                             : Постоянный
Битрейт                                  : 1411,2 Кбит/сек
Каналы                                   : 6 каналов
Расположение каналов                     : Front: L C R, Side: L R, LFE
Частота                                  : 44,1 КГц
Битовая глубина                          : 24 бит
Метод сжатия                             : С потерями
Размер потока                            : 59,9 Мбайт (100%)

Общее
Полное имя                               : H:\Multichannel Music\The Rolling Stones - Sympathy for the Devil (Remixes) dts\(02) [The Rolling Stones] Sympathy for the Devil (Fatboy Slim extended remix).wav
Формат                                   : Wave
Размер файла                             : 85,3 Мбайт
Продолжительность                        : 8 м. 26 с.
Режим общего битрейта                    : Постоянный
Общий поток                              : 1411 Кбит/сек

Аудио
Идентификатор                            : 0
Формат                                   : DTS
Формат/Информация                        : Digital Theater Systems
Параметр Endianness формата              : Little
Режим смешивания                         : LE / 14
Идентификатор кодека                     : 1
Продолжительность                        : 8 м. 26 с.
Вид битрейта                             : Постоянный
Битрейт                                  : 1411,2 Кбит/сек
Каналы                                   : 6 каналов
Расположение каналов                     : Front: L C R, Side: L R, LFE
Частота                                  : 44,1 КГц
Битовая глубина                          : 24 бит
Метод сжатия                             : С потерями
Размер потока                            : 85,3 Мбайт (100%)

Общее
Полное имя                               : H:\Multichannel Music\The Rolling Stones - Sympathy for the Devil (Remixes) dts\(03) [The Rolling Stones] Sympathy for the Devil (Full Phatt extended remix).wav
Формат                                   : Wave
Размер файла                             : 56,4 Мбайт
Продолжительность                        : 5 м. 35 с.
Режим общего битрейта                    : Постоянный
Общий поток                              : 1411 Кбит/сек

Аудио
Идентификатор                            : 0
Формат                                   : DTS
Формат/Информация                        : Digital Theater Systems
Параметр Endianness формата              : Little
Режим смешивания                         : LE / 14
Идентификатор кодека                     : 1
Продолжительность                        : 5 м. 35 с.
Вид битрейта                             : Постоянный
Битрейт                                  : 1411,2 Кбит/сек
Каналы                                   : 6 каналов
Расположение каналов                     : Front: L C R, Side: L R, LFE
Частота                                  : 44,1 КГц
Битовая глубина                          : 24 бит
Метод сжатия                             : С потерями
Размер потока                            : 56,4 Мбайт (100%)

Общее
Полное имя                               : H:\Multichannel Music\The Rolling Stones - Sympathy for the Devil (Remixes) dts\(04) [The Rolling Stones] Sympathy for the Devil (Original Rolling Stones version).wav
Формат                                   : Wave
Размер файла                             : 63,7 Мбайт
Продолжительность                        : 6 м. 18 с.
Режим общего битрейта                    : Постоянный
Общий поток                              : 1411 Кбит/сек

Аудио
Идентификатор                            : 0
Формат                                   : DTS
Формат/Информация                        : Digital Theater Systems
Параметр Endianness формата              : Little
Режим смешивания                         : LE / 14
Идентификатор кодека                     : 1
Продолжительность                        : 6 м. 18 с.
Вид битрейта                             : Постоянный
Битрейт                                  : 1411,2 Кбит/сек
Каналы                                   : 6 каналов
Расположение каналов                     : Front: L C R, Side: L R, LFE
Частота                                  : 44,1 КГц
Битовая глубина                          : 24 бит
Метод сжатия                             : С потерями
Размер потока                            : 63,7 Мбайт (100%)
Download

Скачать (бесплатно и на максимальной скорости)!

Как скачивать  ·   Что такое torrent (торрент)  ·   Рейтинг и ограничения

Сайт не распространяет и не хранит электронные версии произведений, а лишь предоставляет доступ к создаваемому пользователями каталогу ссылок на торрент-файлы, которые содержат только списки хеш-сумм


 
Показать сообщения:    
Ответить на тему

Текущее время: 23-Сен 06:15

Часовой пояс: GMT + 3



Вы не можете начинать темы
Вы не можете отвечать на сообщения
Вы не можете редактировать свои сообщения
Вы не можете удалять свои сообщения
Вы не можете голосовать в опросах
Вы не можете прикреплять файлы к сообщениям
Вы не можете скачивать файлы



В начало страницы  •