Loading...
Error
Регистрация  · 
Имя: Пароль:    
 ·  Забыли пароль?
Правила пользования ресурсом

Обладатель VIP статуса на 24 часа: Meacrv
стань следующим читай правила
Сегодня идет свободное скачивание без начисления скачанного

(Бардовская песня) Владимир Высоцкий - Все песни 15 CD Box-Set, 2008 FLAC (image+.cue), lossless

Ответить на тему
 
Автор Сообщение

cataman


post 16-Ноя-2011 21:46

 

Владимир Высоцкий - Все песни 15 CD Box-Set


Страна: CCCР / Жанр: Бардовская песня / Год выпуска: 1960-1980 (Переиздание 2008)
Битрейт аудио / : lossless / Формат: FLAC (image + .cue+Scan) / Продолжительность: 17:29:53 (15 CD)

Продолжительность: 00:54:14


01. Татуировка (1961) (2:00)
02. Красное, зеленое (1961) (1:01)
03. Я был душой дурного общества (1961) (2:17)
04. Ленинградская блокада (1961) (1:30)
05. Бодайбо (1961) (1:45)
06. Город уши заткнул (1961) (2:02)
07. 'Что же ты, зараза, бровь себе подбрила...' (1961) (1:20)
08. 'Позабыв про дела и тревоги...' (1961 или 1962) (1:40)
09. Тот, кто раньше с нею был (1962) (2:35)
10. У тебя глаза - как нож (1962) (1:35)
11. Я в деле (1962) (1:15)
12. Весна еще в начале (1962) (1:57)
13. Серебрянные струны ('гитара') (1962) (2:02)
14. 'У меня было сорок фамилий...' (1962 или 1963) (1:03)
15. Лежит камень в степи (1962) (1:24)
16. Большой Каретный (1962) (1:25)
17. 'Сколько лет, сколько лет...' (1962) (0:41)
18. Правда ведь обидно (1962) (1:03)
19. Зэка Васильев и Петров зэка (1962) (2:23)
20. 'Пока вы здесь в ванночке с кафелем...' (1963) (1:21)
21. Сивка-бурка (1963) (1:24)
22. '- Эй, шофер, вези - Бутырский хутор...' (1963) (1:35)
23. 'За меня невеста отрыдает честно...' (1963) (2:04)
24. 'Если б водка была на одного...' (1963) (2:07)
25. 'Все позади - и КПЗ, и суд...' (1963) (2:01)
26. Рецидивист (1963) (1:44)
27. Я женщин не бил до семнадцати лет (1963) (2:28)
28. 'Мы вместе грабили одну и ту же хату...' (1963) (2:27)
29. Сорок девять дней (стихи В.Высоцкого, автор музыки не известен) (1960) (3:05)

Код:

Exact Audio Copy V0.99 prebeta 4 from 23. January 2008

EAC extraction logfile from 27. December 2008, 1:48

Владимир Высоцкий / Все песни. Диск 01. 1960-1963

Used drive  : Optiarc DVD RW AD-7203S   Adapter: 0  ID: 4

Read mode               : Secure
Utilize accurate stream : Yes
Defeat audio cache      : Yes
Make use of C2 pointers : No

Read offset correction                      : 48
Overread into Lead-In and Lead-Out          : No
Fill up missing offset samples with silence : Yes
Delete leading and trailing silent blocks   : No
Null samples used in CRC calculations       : Yes
Used interface                              : Installed external ASPI interface

Used output format : Internal WAV Routines
Sample format      : 44.100 Hz; 16 Bit; Stereo

TOC of the extracted CD

     Track |   Start  |  Length  | Start sector | End sector
    ---------------------------------------------------------
        1  |  0:00.00 |  1:59.74 |         0    |     8998   
        2  |  1:59.74 |  1:00.63 |      8999    |    13561   
        3  |  3:00.62 |  2:17.29 |     13562    |    23865   
        4  |  5:18.16 |  1:30.12 |     23866    |    30627   
        5  |  6:48.28 |  1:45.30 |     30628    |    38532   
        6  |  8:33.58 |  2:01.67 |     38533    |    47674   
        7  | 10:35.50 |  1:19.38 |     47675    |    53637   
        8  | 11:55.13 |  1:40.21 |     53638    |    61158   
        9  | 13:35.34 |  2:35.02 |     61159    |    72785   
       10  | 16:10.36 |  1:34.61 |     72786    |    79896   
       11  | 17:45.22 |  1:15.36 |     79897    |    85557   
       12  | 19:00.58 |  1:56.62 |     85558    |    94319   
       13  | 20:57.45 |  2:01.60 |     94320    |   103454   
       14  | 22:59.30 |  1:03.00 |    103455    |   108179   
       15  | 24:02.30 |  1:24.10 |    108180    |   114489   
       16  | 25:26.40 |  1:24.44 |    114490    |   120833   
       17  | 26:51.09 |  0:41.32 |    120834    |   123940   
       18  | 27:32.41 |  1:02.62 |    123941    |   128652   
       19  | 28:35.28 |  2:23.02 |    128653    |   139379   
       20  | 30:58.30 |  1:21.11 |    139380    |   145465   
       21  | 32:19.41 |  1:23.66 |    145466    |   151756   
       22  | 33:43.32 |  1:34.60 |    151757    |   158866   
       23  | 35:18.17 |  2:04.25 |    158867    |   168191   
       24  | 37:22.42 |  2:06.39 |    168192    |   177680   
       25  | 39:29.06 |  2:01.29 |    177681    |   186784   
       26  | 41:30.35 |  1:43.52 |    186785    |   194561   
       27  | 43:14.12 |  2:27.70 |    194562    |   205656   
       28  | 45:42.07 |  2:27.19 |    205657    |   216700   
       29  | 48:09.26 |  3:05.01 |    216701    |   230576   

Range status and errors

Selected range

     Filename E:\Lossless\Владимир Высоцкий - Все песни\Владимир Высоцкий - Все песни. Диск 01. 1960-1963\Владимир Высоцкий - Все песни. Диск 01. 1960-1963.wav

     Peak level 100.0 %
     Range quality 100.0 %
     Test CRC 564B94F2
     Copy CRC 564B94F2
     Copy OK

No errors occurred

 
AccurateRip summary
 
Track  1  not present in database
Track  2  not present in database
Track  3  not present in database
Track  4  not present in database
Track  5  not present in database
Track  6  not present in database
Track  7  not present in database
Track  8  not present in database
Track  9  not present in database
Track 10  not present in database
Track 11  not present in database
Track 12  not present in database
Track 13  not present in database
Track 14  not present in database
Track 15  not present in database
Track 16  not present in database
Track 17  not present in database
Track 18  not present in database
Track 19  not present in database
Track 20  not present in database
Track 21  not present in database
Track 22  not present in database
Track 23  not present in database
Track 24  not present in database
Track 25  not present in database
Track 26  not present in database
Track 27  not present in database
Track 28  not present in database
Track 29  not present in database
 
None of the tracks are present in the AccurateRip database

End of status report
Продолжительность: 00:52:56


01. Про Сережу Фомина (1964) (2:35)
02. Штрафные батальоны (1964) (2:49)
03. Письмо рабочих тамбовского завода китайским руководителям (1964) (2:19)
04. Антисемиты (1964) (2:12)
05. Песня про уголовный кодекс (1964) (1:50)
06. Наводчица (1964) (1:42)
07. Счетчик щелкает (1964) (1:38)
08. О нашей встрече (1964) (2:53)
09. Песня о госпитале (1964) (1:04)
10. Все ушли на фронт (1964) (2:18)
11. 'Я любил и женщин, и проказы...' (1964) (1:45)
12. Формулировка (1964) (1:45)
13. Песня про стукача (1964) (2:19)
14. 'Потеряю истинную веру...' (1964) (0:43)
15. Песня о звездах (1964) (1:54)
16. 'Помню, я однажды и в 'очко', и в 'стос' играл...' (1964) (2:02)
17. 'Нам вчера прислали...' (1964) (1:12)
18. Бал-маскарад (1964) (1:32)
19. Братские могилы (1964) (1:16)
20. 'Говорят, арестован...' (1964) (1:01)
21. 'Так оно и есть...' (1964) (2:33)
22. Городской романс (1964) (2:29)
23. Я был слесарь шестого разряда (1964) (1:29)
24. Ребята, напишите мне письмо (1964) (1:52)
25. 'В этом доме большом раньше пьянка была...' (1964) (1:06)
26. 'Передо мной любой факир - ну просто карлик...' (1964) (1:15)
27. Песня студентов - археологов (1964) (1:31)
28. Марш студентов - физиков (1964) (2:38)
29. 'Ну, о чем с тобою говорить!..' (1964) (1:10)

Код:

Exact Audio Copy V0.99 prebeta 4 from 23. January 2008

EAC extraction logfile from 27. December 2008, 3:06

Владимир Высоцкий / Все песни. Диск 02. 1964

Used drive  : Optiarc DVD RW AD-7203S   Adapter: 0  ID: 4

Read mode               : Secure
Utilize accurate stream : Yes
Defeat audio cache      : Yes
Make use of C2 pointers : No

Read offset correction                      : 48
Overread into Lead-In and Lead-Out          : No
Fill up missing offset samples with silence : Yes
Delete leading and trailing silent blocks   : No
Null samples used in CRC calculations       : Yes
Used interface                              : Installed external ASPI interface

Used output format : Internal WAV Routines
Sample format      : 44.100 Hz; 16 Bit; Stereo

TOC of the extracted CD

     Track |   Start  |  Length  | Start sector | End sector
    ---------------------------------------------------------
        1  |  0:00.00 |  2:34.67 |         0    |    11616   
        2  |  2:34.67 |  2:49.37 |     11617    |    24328   
        3  |  5:24.29 |  2:19.31 |     24329    |    34784   
        4  |  7:43.60 |  2:12.26 |     34785    |    44710   
        5  |  9:56.11 |  1:49.72 |     44711    |    52957   
        6  | 11:46.08 |  1:42.21 |     52958    |    60628   
        7  | 13:28.29 |  1:38.17 |     60629    |    67995   
        8  | 15:06.46 |  2:53.23 |     67996    |    80993   
        9  | 17:59.69 |  1:04.20 |     80994    |    85813   
       10  | 19:04.14 |  2:18.28 |     85814    |    96191   
       11  | 21:22.42 |  1:45.05 |     96192    |   104071   
       12  | 23:07.47 |  1:45.13 |    104072    |   111959   
       13  | 24:52.60 |  2:18.47 |    111960    |   122356   
       14  | 27:11.32 |  0:43.12 |    122357    |   125593   
       15  | 27:54.44 |  1:54.15 |    125594    |   134158   
       16  | 29:48.59 |  2:01.49 |    134159    |   143282   
       17  | 31:50.33 |  1:12.17 |    143283    |   148699   
       18  | 33:02.50 |  1:32.22 |    148700    |   155621   
       19  | 34:34.72 |  1:16.34 |    155622    |   161355   
       20  | 35:51.31 |  1:00.67 |    161356    |   165922   
       21  | 36:52.23 |  2:33.15 |    165923    |   177412   
       22  | 39:25.38 |  2:28.50 |    177413    |   188562   
       23  | 41:54.13 |  1:28.58 |    188563    |   195220   
       24  | 43:22.71 |  1:52.05 |    195221    |   203625   
       25  | 45:15.01 |  1:06.13 |    203626    |   208588   
       26  | 46:21.14 |  1:15.04 |    208589    |   214217   
       27  | 47:36.18 |  1:30.55 |    214218    |   221022   
       28  | 49:06.73 |  2:38.36 |    221023    |   232908   
       29  | 51:45.34 |  1:10.34 |    232909    |   238192   

Range status and errors

Selected range

     Filename E:\Lossless\Владимир Высоцкий - Все песни\Владимир Высоцкий - Все песни. Диск 02. 1964\Владимир Высоцкий - Все песни. Диск 02. 1964.wav

     Peak level 99.9 %
     Range quality 100.0 %
     Test CRC 0003EBD5
     Copy CRC 0003EBD5
     Copy OK

No errors occurred

 
AccurateRip summary
 
Track  1  not present in database
Track  2  not present in database
Track  3  not present in database
Track  4  not present in database
Track  5  not present in database
Track  6  not present in database
Track  7  not present in database
Track  8  not present in database
Track  9  not present in database
Track 10  not present in database
Track 11  not present in database
Track 12  not present in database
Track 13  not present in database
Track 14  not present in database
Track 15  not present in database
Track 16  not present in database
Track 17  not present in database
Track 18  not present in database
Track 19  not present in database
Track 20  not present in database
Track 21  not present in database
Track 22  not present in database
Track 23  not present in database
Track 24  not present in database
Track 25  not present in database
Track 26  not present in database
Track 27  not present in database
Track 28  not present in database
Track 29  not present in database
 
None of the tracks are present in the AccurateRip database

End of status report
Продолжительность: 00:54:09


01. 'Парня спасем...' (1965) (1:09)
02. Песня о нейтральной полосе (1965) (2:09)
03. Попутчик (1965) (2:32)
04. 'Сыт я по горло, до подбородка...' (1965) (0:56)
05. 'Мой друг уехал в Магадан...' (1965) (2:11)
06. 'В холода, в холода...' (1965) (1:53)
07. Высота (1965) (1:27)
08. Песня про снайпера, который через 15 лет после войны спился и сидит в ресторане (1965) (0:45)
09. 'Катерина, Катя, Катерина!..' (1965) (1:08)
10. 'Мне ребята сказали про такую наколку!..' (1965) (2:15)
11. День рождения лейтенанта милиции в ресторане 'Берлин' (1965) (1:56)
12. 'То была не интрижка...' (1965) (1:25)
13. Песня завистника (1965) (1:42)
14. 'Перед выездом в загранку...' (1965) (1:47)
15. 'Есть на земле предостаточно рас...' (1965) (1:35)
16. 'В куски разлетелася корона...' (1965) (1:16)
17. 'Всю Россию до границы...' (1965) (0:19)
18. Солдаты группы 'Центр' (1965) (1:24)
19. 'Она на двор - он со двора...' (1965) (1:56)
20. Песня о сумасшедшем доме (зима 1965-1966) (1:56)
21. Про черта (зима 1965-1966) (2:09)
22. Песня о сентиментальном боксере (1966) (1:05)
23. Песня о конькобежце на короткие дистанции, которого заставили бежать на длинную (1966) (2:36)
24. Песня-сказка о старом доме на Новом Арбате (стихи В.Высоцкого - муз. М.Таривердиева) (1966) (2:35)
25. О вкусах не спорят (1966) (1:58)
26. 'В тюрьме Таганской, нас стало мало...' (фрагмент) (1965) (0:18)
27. 'Войны и голодухи натерпелися мы всласть...' (исп. А.Васильев) (1965) (0:51)
28. Ох, как в Третьем отделеньи... (стихи Н.Морозова, Д.Клеменца, муз. А.Васильева, Б.Хмельницкого, В.Высоцкого) (1965) (0:50)
29. 'На возраст молодой мой не смотри...' (один куплет) (1965) (0:30)
30. Прожить полвека - это не пустяк... (стихи В.Высоцкого, автор муз. не известен., исп. хор артистов Театра на Таганке (1965) (2:39)
31. 'И фюрер кричал, от завода бледнея...' (1965) (0:36)
32. 'Дорога, дорога - счета нет шагам...' (1966) (2:13)
33. 'Здравствуйте, наши добрые зрители...' (1966) (1:17)
34. 'Вот что: жизнь прекрасна, товарищи...' (1966) (2:00)
35. 'Здесь сидел ты, Валет...' (1966) (0:53)

Код:

Exact Audio Copy V0.99 prebeta 4 from 23. January 2008

EAC extraction logfile from 27. December 2008, 4:53

Владимир Высоцкий / Все песни. Диск 03. 1965-1966

Used drive  : Optiarc DVD RW AD-7203S   Adapter: 0  ID: 4

Read mode               : Secure
Utilize accurate stream : Yes
Defeat audio cache      : Yes
Make use of C2 pointers : No

Read offset correction                      : 48
Overread into Lead-In and Lead-Out          : No
Fill up missing offset samples with silence : Yes
Delete leading and trailing silent blocks   : No
Null samples used in CRC calculations       : Yes
Used interface                              : Installed external ASPI interface

Used output format : Internal WAV Routines
Sample format      : 44.100 Hz; 16 Bit; Stereo

TOC of the extracted CD

     Track |   Start  |  Length  | Start sector | End sector
    ---------------------------------------------------------
        1  |  0:00.00 |  1:09.25 |         0    |     5199   
        2  |  1:09.25 |  2:09.31 |      5200    |    14905   
        3  |  3:18.56 |  2:32.02 |     14906    |    26307   
        4  |  5:50.58 |  0:55.59 |     26308    |    30491   
        5  |  6:46.42 |  2:11.15 |     30492    |    40331   
        6  |  8:57.57 |  1:52.56 |     40332    |    48787   
        7  | 10:50.38 |  1:27.12 |     48788    |    55324   
        8  | 12:17.50 |  0:44.53 |     55325    |    58677   
        9  | 13:02.28 |  1:07.68 |     58678    |    63770   
       10  | 14:10.21 |  2:14.72 |     63771    |    73892   
       11  | 16:25.18 |  1:55.53 |     73893    |    82570   
       12  | 18:20.71 |  1:25.10 |     82571    |    88955   
       13  | 19:46.06 |  1:41.53 |     88956    |    96583   
       14  | 21:27.59 |  1:46.63 |     96584    |   104596   
       15  | 23:14.47 |  1:34.50 |    104597    |   111696   
       16  | 24:49.22 |  1:15.57 |    111697    |   117378   
       17  | 26:05.04 |  0:18.38 |    117379    |   118766   
       18  | 26:23.42 |  1:24.08 |    118767    |   125074   
       19  | 27:47.50 |  1:55.48 |    125075    |   133747   
       20  | 29:43.23 |  1:55.57 |    133748    |   142429   
       21  | 31:39.05 |  2:09.29 |    142430    |   152133   
       22  | 33:48.34 |  1:05.21 |    152134    |   157029   
       23  | 34:53.55 |  2:36.21 |    157030    |   168750   
       24  | 37:30.01 |  2:34.43 |    168751    |   180343   
       25  | 40:04.44 |  1:57.55 |    180344    |   189173   
       26  | 42:02.24 |  0:17.63 |    189174    |   190511   
       27  | 42:20.12 |  0:51.00 |    190512    |   194336   
       28  | 43:11.12 |  0:49.73 |    194337    |   198084   
       29  | 44:01.10 |  0:29.54 |    198085    |   200313   
       30  | 44:30.64 |  2:39.12 |    200314    |   212250   
       31  | 47:10.01 |  0:36.31 |    212251    |   214981   
       32  | 47:46.32 |  2:13.18 |    214982    |   224974   
       33  | 49:59.50 |  1:16.38 |    224975    |   230712   
       34  | 51:16.13 |  1:59.51 |    230713    |   239688   
       35  | 53:15.64 |  0:53.22 |    239689    |   243685   

Range status and errors

Selected range

     Filename E:\Lossless\Владимир Высоцкий - Все песни\Владимир Высоцкий - Все песни. Диск 03. 1965-1966\Владимир Высоцкий - Все песни. Диск 03. 1965-1966.wav

     Peak level 100.0 %
     Range quality 100.0 %
     Test CRC 4280C744
     Copy CRC 4280C744
     Copy OK

No errors occurred

 
AccurateRip summary
 
Track  1  not present in database
Track  2  not present in database
Track  3  not present in database
Track  4  not present in database
Track  5  not present in database
Track  6  not present in database
Track  7  not present in database
Track  8  not present in database
Track  9  not present in database
Track 10  not present in database
Track 11  not present in database
Track 12  not present in database
Track 13  not present in database
Track 14  not present in database
Track 15  not present in database
Track 16  not present in database
Track 17  not present in database
Track 18  not present in database
Track 19  not present in database
Track 20  not present in database
Track 21  not present in database
Track 22  not present in database
Track 23  not present in database
Track 24  not present in database
Track 25  not present in database
Track 26  not present in database
Track 27  not present in database
Track 28  not present in database
Track 29  not present in database
Track 30  not present in database
Track 31  not present in database
Track 32  not present in database
Track 33  not present in database
Track 34  not present in database
Track 35  not present in database
 
None of the tracks are present in the AccurateRip database

End of status report
Продолжительность: 01:16:35


01. Песня о друге (1966) (2:51)
02. Здесь вам не равнина (1966) (2:30)
03. Военняя песня (1966) (2:26)
04. 'Свои обиды каждый человек...' (1966) (0:36)
05. Скалолазка (1966) (2:02)
06. Прощание с горами (1966) (2:44)
07. 'Корабли постоят - и ложатся на курс...' (1966) (2:30)
08. 'Возле города Пекина...' (1966) (1:39)
09. Она была в Париже (1966) (1:33)
10. Парус (1966) (1:16)
11. 'Каждому хочется малость погреться...' (1966) (1:18)
12. Песня космических негодяев (1966) (2:13)
13. В далеком созвездии Тау Кита (1966) (3:39)
14. Про дикого вепря (1966) (2:21)
15. 'У домашних и хищных зверей...' (1966) (1:15)
16. 'А люди все роптали и роптали...' (1966) (1:27)
17. Дела (1966) (1:46)
18. Гололед (зима 1966-1967) (1:25)
19. 'Вот - главный вход, но только вот...' (зима 1966-1967) (2:54)
20. Песня - сказка о нечисти (1966 или 1967) (2:46)
21. Случай в ресторане (1967) (1:47)
22. Пародия на плохой детектив (1967) (2:38)
23. Письмо из Москвы в деревню ('Не пиши мне про любовь - не поверю я...') (1967) (2:24)
24. Письмо на выставку ('Здравствуй, Коля, милый мой, друг мой ненаглядный...') (1967) (2:24)
25. Зарисовка о Ленинграде (1967) (0:48)
26. Ой, где был я вчера (1967) (2:48)
27. Случай на шахте (1967) (1:39)
28. Профессионалы (1967) (2:15)
29. Песенка про йогов (1967) (1:48)
30. Песня-сказка про джинна (1967) (2:59)
31. Песня о вещем Олеге (1967) (2:29)
32. Песня о вещей Кассандре (1967) (1:37)
33. Песня-сказка о несчастных сказочных персонажах (1967) (3:11)
34. 'От скучных шабашей...' (1967) (2:36)
35. Лукоморья больше нет (1967) (3:59)

Код:

Exact Audio Copy V0.99 prebeta 4 from 23. January 2008

EAC extraction logfile from 27. December 2008, 12:49

Владимир Высоцкий / Все песни. Диск 04. 1966-1967

Used drive  : Optiarc DVD RW AD-7203S   Adapter: 0  ID: 4

Read mode               : Secure
Utilize accurate stream : Yes
Defeat audio cache      : Yes
Make use of C2 pointers : No

Read offset correction                      : 48
Overread into Lead-In and Lead-Out          : No
Fill up missing offset samples with silence : Yes
Delete leading and trailing silent blocks   : No
Null samples used in CRC calculations       : Yes
Used interface                              : Installed external ASPI interface

Used output format : Internal WAV Routines
Sample format      : 44.100 Hz; 16 Bit; Stereo

TOC of the extracted CD

     Track |   Start  |  Length  | Start sector | End sector
    ---------------------------------------------------------
        1  |  0:00.00 |  2:51.18 |         0    |    12842   
        2  |  2:51.18 |  2:29.60 |     12843    |    24077   
        3  |  5:21.03 |  2:26.37 |     24078    |    35064   
        4  |  7:47.40 |  0:35.58 |     35065    |    37747   
        5  |  8:23.23 |  2:02.36 |     37748    |    46933   
        6  | 10:25.59 |  2:44.28 |     46934    |    59261   
        7  | 13:10.12 |  2:30.16 |     59262    |    70527   
        8  | 15:40.28 |  1:38.73 |     70528    |    77950   
        9  | 17:19.26 |  1:32.41 |     77951    |    84891   
       10  | 18:51.67 |  1:16.22 |     84892    |    90613   
       11  | 20:08.14 |  1:18.02 |     90614    |    96465   
       12  | 21:26.16 |  2:12.66 |     96466    |   106431   
       13  | 23:39.07 |  3:38.49 |    106432    |   122830   
       14  | 27:17.56 |  2:20.72 |    122831    |   133402   
       15  | 29:38.53 |  1:15.13 |    133403    |   139040   
       16  | 30:53.66 |  1:26.72 |    139041    |   145562   
       17  | 32:20.63 |  1:45.52 |    145563    |   153489   
       18  | 34:06.40 |  1:25.10 |    153490    |   159874   
       19  | 35:31.50 |  2:54.17 |    159875    |   172941   
       20  | 38:25.67 |  2:46.14 |    172942    |   185405   
       21  | 41:12.06 |  1:46.52 |    185406    |   193407   
       22  | 42:58.58 |  2:38.09 |    193408    |   205266   
       23  | 45:36.67 |  2:24.17 |    205267    |   216083   
       24  | 48:01.09 |  2:24.28 |    216084    |   226911   
       25  | 50:25.37 |  0:47.42 |    226912    |   230478   
       26  | 51:13.04 |  2:47.62 |    230479    |   243065   
       27  | 54:00.66 |  1:39.12 |    243066    |   250502   
       28  | 55:40.03 |  2:15.15 |    250503    |   260642   
       29  | 57:55.18 |  1:48.34 |    260643    |   268776   
       30  | 59:43.52 |  2:59.31 |    268777    |   282232   
       31  | 62:43.08 |  2:28.57 |    282233    |   293389   
       32  | 65:11.65 |  1:37.37 |    293390    |   300701   
       33  | 66:49.27 |  3:11.21 |    300702    |   315047   
       34  | 70:00.48 |  2:35.70 |    315048    |   326742   
       35  | 72:36.43 |  3:58.43 |    326743    |   344635   

Range status and errors

Selected range

     Filename E:\Lossless\Владимир Высоцкий - Все песни\Владимир Высоцкий - Все песни. Диск 04. 1966-1967\Владимир Высоцкий - Все песни. Диск 04. 1966-1967.wav

     Peak level 100.0 %
     Range quality 100.0 %
     Test CRC 910B0B38
     Copy CRC 910B0B38
     Copy OK

No errors occurred

 
AccurateRip summary
 
Track  1  not present in database
Track  2  not present in database
Track  3  not present in database
Track  4  not present in database
Track  5  not present in database
Track  6  not present in database
Track  7  not present in database
Track  8  not present in database
Track  9  not present in database
Track 10  not present in database
Track 11  not present in database
Track 12  not present in database
Track 13  not present in database
Track 14  not present in database
Track 15  not present in database
Track 16  not present in database
Track 17  not present in database
Track 18  not present in database
Track 19  not present in database
Track 20  not present in database
Track 21  not present in database
Track 22  not present in database
Track 23  not present in database
Track 24  not present in database
Track 25  not present in database
Track 26  not present in database
Track 27  not present in database
Track 28  not present in database
Track 29  not present in database
Track 30  not present in database
Track 31  not present in database
Track 32  not present in database
Track 33  not present in database
Track 34  not present in database
Track 35  not present in database
 
None of the tracks are present in the AccurateRip database

End of status report
Продолжительность: 01:14:57


01. Песня о новом времени (1967) (2:01)
02. Аисты (1967) (3:21)
03. 'У нас вчера с позавчера...' (1967) (1:39)
04. Про правого инсайда (1967) (2:44)
05. 'Гром прогремел - золяция идет...' (1967) (1:21)
06. 'До нашей эры соблюдалось чувство меры...' (1967) (1:58)
07. Песня Бродского (1967) (2:21)
08. Письмо (1967) (2:40)
09. Спасите наши души (1967) (3:54)
10. Дом хрустальный (1967) (2:12)
11. Дайте собакам мяса (1967) (1:38)
12. 'Мао Цзедун - большой шалун...' (1967) (0:53)
13. Невидимка (1967) (3:04)
14. Песня про плотника Иосифа, Девы Марии и Святого Духа (1967) (2:04)
15. 'Он был хирургом, даже нейро...' (1967) (0:54)
16. 'Наши предки - люди темные и грубые...' (1968) (1:43)
17. Моя цыганская (1968) (4:36)
18. 'Нат Пинкертон - вот с детства мой кумир...' (1968) (2:57)
19. 'Один музыкант объяснил мне пространно...' (1968) (1:56)
20. Москва - Одесса (1968) (2:36)
21. Утренняя гимнастика (1968) (1:34)
22. 'На стол колоду, господа...' (1968) (3:36)
23. Марш аквалангистов (1968) (1:43)
24. 'Сколько чудес за туманами кроется...' (1968) (2:15)
25. Песня командировочного (1968) (3:15)
26. Я уехал в Магадан (1968) (1:55)
27. 'Жил-был добрый дурачина-простофиля...' (1968) (3:22)
28. 'Вот и разошлись пути-дороги вдруг...' (1968) (1:48)
29. 'Давно смолкли залпы орудий...' (1968) (2:11)
30. Еще не вечер (1968) (3:14)
31. 'Вот некролог, словно отговорка...' (1968) (1:50)
32. 'При всякой погоде...' (1968) (1:39)

Код:

Exact Audio Copy V0.99 prebeta 4 from 23. January 2008

EAC extraction logfile from 27. December 2008, 14:32

Владимир Высоцкий / Все песни. Диск 05. 1967-1968

Used drive  : Optiarc DVD RW AD-7203S   Adapter: 0  ID: 4

Read mode               : Secure
Utilize accurate stream : Yes
Defeat audio cache      : Yes
Make use of C2 pointers : No

Read offset correction                      : 48
Overread into Lead-In and Lead-Out          : No
Fill up missing offset samples with silence : Yes
Delete leading and trailing silent blocks   : No
Null samples used in CRC calculations       : Yes
Used interface                              : Installed external ASPI interface

Used output format : Internal WAV Routines
Sample format      : 44.100 Hz; 16 Bit; Stereo

TOC of the extracted CD

     Track |   Start  |  Length  | Start sector | End sector
    ---------------------------------------------------------
        1  |  0:00.00 |  2:01.13 |         0    |     9087   
        2  |  2:01.13 |  3:21.30 |      9088    |    24192   
        3  |  5:22.43 |  1:39.27 |     24193    |    31644   
        4  |  7:01.70 |  2:44.10 |     31645    |    43954   
        5  |  9:46.05 |  1:21.07 |     43955    |    50036   
        6  | 11:07.12 |  1:58.36 |     50037    |    58922   
        7  | 13:05.48 |  2:20.58 |     58923    |    69480   
        8  | 15:26.31 |  2:40.29 |     69481    |    81509   
        9  | 18:06.60 |  3:54.29 |     81510    |    99088   
       10  | 22:01.14 |  2:12.23 |     99089    |   109011   
       11  | 24:13.37 |  1:38.27 |    109012    |   116388   
       12  | 25:51.64 |  0:53.05 |    116389    |   120368   
       13  | 26:44.69 |  3:04.23 |    120369    |   134191   
       14  | 29:49.17 |  2:03.74 |    134192    |   143490   
       15  | 31:53.16 |  0:54.00 |    143491    |   147540   
       16  | 32:47.16 |  1:42.57 |    147541    |   155247   
       17  | 34:29.73 |  4:35.68 |    155248    |   175940   
       18  | 39:05.66 |  2:57.37 |    175941    |   189252   
       19  | 42:03.28 |  1:56.18 |    189253    |   197970   
       20  | 43:59.46 |  2:35.43 |    197971    |   209638   
       21  | 46:35.14 |  1:34.34 |    209639    |   216722   
       22  | 48:09.48 |  3:36.21 |    216723    |   232943   
       23  | 51:45.69 |  1:43.13 |    232944    |   240681   
       24  | 53:29.07 |  2:14.70 |    240682    |   250801   
       25  | 55:44.02 |  3:14.44 |    250802    |   265395   
       26  | 58:58.46 |  1:55.21 |    265396    |   274041   
       27  | 60:53.67 |  3:21.42 |    274042    |   289158   
       28  | 64:15.34 |  1:47.48 |    289159    |   297231   
       29  | 66:03.07 |  2:10.57 |    297232    |   307038   
       30  | 68:13.64 |  3:14.27 |    307039    |   321615   
       31  | 71:28.16 |  1:49.56 |    321616    |   329846   
       32  | 73:17.72 |  1:38.41 |    329847    |   337237   

Range status and errors

Selected range

     Filename E:\Lossless\Владимир Высоцкий - Все песни\Владимир Высоцкий - Все песни. Диск 05. 1967-1968\Владимир Высоцкий - Все песни. Диск 05. 1967-1968.wav

     Peak level 100.0 %
     Range quality 99.9 %
     Test CRC 4CD1BEFD
     Copy CRC 4CD1BEFD
     Copy OK

No errors occurred

 
AccurateRip summary
 
Track  1  not present in database
Track  2  not present in database
Track  3  not present in database
Track  4  not present in database
Track  5  not present in database
Track  6  not present in database
Track  7  not present in database
Track  8  not present in database
Track  9  not present in database
Track 10  not present in database
Track 11  not present in database
Track 12  not present in database
Track 13  not present in database
Track 14  not present in database
Track 15  not present in database
Track 16  not present in database
Track 17  not present in database
Track 18  not present in database
Track 19  not present in database
Track 20  not present in database
Track 21  not present in database
Track 22  not present in database
Track 23  not present in database
Track 24  not present in database
Track 25  not present in database
Track 26  not present in database
Track 27  not present in database
Track 28  not present in database
Track 29  not present in database
Track 30  not present in database
Track 31  not present in database
Track 32  not present in database
 
None of the tracks are present in the AccurateRip database

End of status report
Продолжительность: 01:18:48


01. Песня летчика (1968) (2:02)
02. Песня самолета-истребителя (1968) (3:29)
03. Песенка ни про что, или Что случилось в Африке (1968) (1:32)
04. Банька по-белому (1968) (7:49)
05. Охота на волков (1968) (3:03)
06. 'У нее все свое - и белье, и жилье...' (1968) (3:03)
07. 'То ли в избу и запеть...' (1968) (3:31)
08. Песня о двух красивых автомобилях (1968) (2:09)
09. 'Мне каждый вечер зажигают свечи...' (1968) (1:56)
10. Песенка про метателя молота (1968) (1:31)
11. Песня Рябого (1968) (1:40)
12. Романс ('Было так - я любил и страдал...') (1968) (3:42)
13. Куплеты Бенгальского (1968) (1:55)
14. 'В томленье одиноком...' (1968) (2:06)
15. Цыганская пенся (1968) (1:35)
16. Оловянные солдатики (1969) (2:05)
17. 'Бросьте скуку, как корку арбузную...' (1969) (1:09)
18. Поездка в город (1969) (2:33)
19. Ноль семь (1969) (2:28)
20. Песенка о переселении душ (1969) (2:10)
21. 'И душа, и голова, кажись, болит...' (1969) (1:48)
22. 'Не писать мне повестей, романов...' (1969) (1:24)
23. Я не люблю (1969) (2:08)
24. 'Ну вот, исчезла дрожь в руках...' (1969) (3:23)
25. К вершине (1969) (1:59)
26. Песенка о слухах (1969) (2:53)
27. 'Рядовой Борисов!..' (1969) (3:03)
28. Старательская (1969) (0:48)
29. 'И вкусы, и запросы мои странны...' (1969) (2:33)
30. '... и молчаливых любят, только реже...' (1968) (1:53)
31. 'Возвратился друг у меня неожиданно...' (1968) (2:03)
32. 'В Москву я вылетаю из Одессы...' (1969) (1:55)
33. 'На мой юный возраст не смотри...' (1969) (1:31)

Код:

Exact Audio Copy V0.99 prebeta 4 from 23. January 2008

EAC extraction logfile from 27. December 2008, 14:44

Владимир Высоцкий / Все песни. Диск 06. 1968-1969

Used drive  : PIONEER DVD-RW  DVR-212D   Adapter: 2  ID: 0

Read mode               : Secure
Utilize accurate stream : Yes
Defeat audio cache      : Yes
Make use of C2 pointers : No

Read offset correction                      : 48
Overread into Lead-In and Lead-Out          : No
Fill up missing offset samples with silence : Yes
Delete leading and trailing silent blocks   : No
Null samples used in CRC calculations       : Yes
Used interface                              : Installed external ASPI interface

Used output format : Internal WAV Routines
Sample format      : 44.100 Hz; 16 Bit; Stereo

TOC of the extracted CD

     Track |   Start  |  Length  | Start sector | End sector
    ---------------------------------------------------------
        1  |  0:00.00 |  2:01.62 |         0    |     9136   
        2  |  2:01.62 |  3:29.10 |      9137    |    24821   
        3  |  5:30.72 |  1:31.56 |     24822    |    31702   
        4  |  7:02.53 |  7:49.21 |     31703    |    66898   
        5  | 14:51.74 |  3:03.20 |     66899    |    80643   
        6  | 17:55.19 |  3:02.72 |     80644    |    94365   
        7  | 20:58.16 |  3:31.25 |     94366    |   110215   
        8  | 24:29.41 |  2:09.23 |    110216    |   119913   
        9  | 26:38.64 |  1:55.73 |    119914    |   128611   
       10  | 28:34.62 |  1:30.44 |    128612    |   135405   
       11  | 30:05.31 |  1:39.65 |    135406    |   142895   
       12  | 31:45.21 |  3:41.42 |    142896    |   159512   
       13  | 35:26.63 |  1:54.57 |    159513    |   168119   
       14  | 37:21.45 |  2:06.21 |    168120    |   177590   
       15  | 39:27.66 |  1:35.20 |    177591    |   184735   
       16  | 41:03.11 |  2:05.21 |    184736    |   194131   
       17  | 43:08.32 |  1:09.08 |    194132    |   199314   
       18  | 44:17.40 |  2:33.32 |    199315    |   210821   
       19  | 46:50.72 |  2:28.21 |    210822    |   221942   
       20  | 49:19.18 |  2:09.62 |    221943    |   231679   
       21  | 51:29.05 |  1:47.44 |    231680    |   239748   
       22  | 53:16.49 |  1:24.22 |    239749    |   246070   
       23  | 54:40.71 |  2:07.60 |    246071    |   255655   
       24  | 56:48.56 |  3:22.51 |    255656    |   270856   
       25  | 60:11.32 |  1:59.23 |    270857    |   279804   
       26  | 62:10.55 |  2:52.40 |    279805    |   292744   
       27  | 65:03.20 |  3:02.64 |    292745    |   306458   
       28  | 68:06.09 |  0:48.13 |    306459    |   310071   
       29  | 68:54.22 |  2:33.07 |    310072    |   321553   
       30  | 71:27.29 |  1:52.40 |    321554    |   329993   
       31  | 73:19.69 |  2:02.47 |    329994    |   339190   
       32  | 75:22.41 |  1:55.11 |    339191    |   347826   
       33  | 77:17.52 |  1:30.53 |    347827    |   354629   

Range status and errors

Selected range

     Filename D:\Lossless Rip\Владимир Высоцкий - Все песни. Диск 06. 1968-1969\Владимир Высоцкий - Все песни. Диск 06. 1968-1969.wav

     Peak level 99.8 %
     Range quality 100.0 %
     Test CRC FBD8AB02
     Copy CRC FBD8AB02
     Copy OK

No errors occurred

 
AccurateRip summary
 
Track  1  not present in database
Track  2  not present in database
Track  3  not present in database
Track  4  not present in database
Track  5  not present in database
Track  6  not present in database
Track  7  not present in database
Track  8  not present in database
Track  9  not present in database
Track 10  not present in database
Track 11  not present in database
Track 12  not present in database
Track 13  not present in database
Track 14  not present in database
Track 15  not present in database
Track 16  not present in database
Track 17  not present in database
Track 18  not present in database
Track 19  not present in database
Track 20  not present in database
Track 21  not present in database
Track 22  not present in database
Track 23  not present in database
Track 24  not present in database
Track 25  not present in database
Track 26  not present in database
Track 27  not present in database
Track 28  not present in database
Track 29  not present in database
Track 30  not present in database
Track 31  not present in database
Track 32  not present in database
Track 33  not present in database
 
None of the tracks are present in the AccurateRip database

End of status report
Продолжительность: 01:17:37


01. Он не вернулся из боя (1969) (2:18)
02. Песня о Земле (1969) (2:02)
03. Сыновья уходят в бой (1969) (2:20)
04. Темнота (1969) (1:40)
05. Про любовь в каменном веке (1969) (1:23)
06. Семейные дела Древнем Риме (1969) (2:32)
07. Про любовь в средние века (1969) (2:49)
08. Про любовь в эпоху Возрождения (1969) (4:03)
09. Посещение музы, или песенка плагиатора (1969) (1:52)
10. 'Подумаешь - с женой не очень ладно...' (1969) (1:14)
11. Охота на кабанов (1969) (3:02)
12. Песня о нотах (1969) (3:32)
13. Человек за бортом (1969) (2:53)
14. Пиратская (1969) (2:05)
15. 'Долго же шел ты, в конверте, листок...' (1969) (3:36)
16. Цунами (1969) (1:42)
17. 'Нет меня, я покинул Рассею...' (1970) (1:52)
18. Веселая покойницкая (1970) (2:55)
19. 'Переворот в мозгах из края в край...' (1970) (2:56)
20. Разведка боем (1970) (2:33)
21. Про двух громилов - братьев Прова и Николая (1970) (5:35)
22. 'Запомню, оставлю в душе этот вечер...' (1970) (2:30)
23. Странная сказка (1970) (2:09)
24. Песенка киноактера (1970) (2:50)
25. 'Комментатор из своей кабины...' (1970) (1:25)
26. Песенка про прыгуна в высоту (1970) (3:13)
27. Бег иноходца (1970) (3:19)
28. 'Я несла свою беду...' (1970) (2:48)
29. Банька по черному (1970) (3:02)
30. 'Я скоро буду дохнуть от тоски...' (1969) (1:27)

Код:

Exact Audio Copy V0.99 prebeta 4 from 23. January 2008

EAC extraction logfile from 27. December 2008, 23:45

Владимир Высоцкий / Все песни. Диск 07. 1969-1970

Used drive  : Optiarc DVD RW AD-7203S   Adapter: 0  ID: 4

Read mode               : Secure
Utilize accurate stream : Yes
Defeat audio cache      : Yes
Make use of C2 pointers : No

Read offset correction                      : 48
Overread into Lead-In and Lead-Out          : No
Fill up missing offset samples with silence : Yes
Delete leading and trailing silent blocks   : No
Null samples used in CRC calculations       : Yes
Used interface                              : Installed external ASPI interface

Used output format : Internal WAV Routines
Sample format      : 44.100 Hz; 16 Bit; Stereo

TOC of the extracted CD

     Track |   Start  |  Length  | Start sector | End sector
    ---------------------------------------------------------
        1  |  0:00.00 |  2:18.04 |         0    |    10353   
        2  |  2:18.04 |  2:01.51 |     10354    |    19479   
        3  |  4:19.55 |  2:19.55 |     19480    |    29959   
        4  |  6:39.35 |  1:40.21 |     29960    |    37480   
        5  |  8:19.56 |  1:23.01 |     37481    |    43706   
        6  |  9:42.57 |  2:31.64 |     43707    |    55095   
        7  | 12:14.46 |  2:48.69 |     55096    |    67764   
        8  | 15:03.40 |  4:03.17 |     67765    |    86006   
        9  | 19:06.57 |  1:51.51 |     86007    |    94382   
       10  | 20:58.33 |  1:14.04 |     94383    |    99936   
       11  | 22:12.37 |  3:01.66 |     99937    |   113577   
       12  | 25:14.28 |  3:32.26 |    113578    |   129503   
       13  | 28:46.54 |  2:53.23 |    129504    |   142501   
       14  | 31:40.02 |  2:04.61 |    142502    |   151862   
       15  | 33:44.63 |  3:35.55 |    151863    |   168042   
       16  | 37:20.43 |  1:42.28 |    168043    |   175720   
       17  | 39:02.71 |  1:51.57 |    175721    |   184102   
       18  | 40:54.53 |  2:54.50 |    184103    |   197202   
       19  | 43:49.28 |  2:56.22 |    197203    |   210424   
       20  | 46:45.50 |  2:32.55 |    210425    |   221879   
       21  | 49:18.30 |  5:34.40 |    221880    |   246969   
       22  | 54:52.70 |  2:29.60 |    246970    |   258204   
       23  | 57:22.55 |  2:09.17 |    258205    |   267896   
       24  | 59:31.72 |  2:49.68 |    267897    |   280639   
       25  | 62:21.65 |  1:25.02 |    280640    |   287016   
       26  | 63:46.67 |  3:13.06 |    287017    |   301497   
       27  | 66:59.73 |  3:19.25 |    301498    |   316447   
       28  | 70:19.23 |  2:48.07 |    316448    |   329054   
       29  | 73:07.30 |  3:02.15 |    329055    |   342719   
       30  | 76:09.45 |  1:27.34 |    342720    |   349278   

Range status and errors

Selected range

     Filename E:\Lossless\Владимир Высоцкий - Все песни\Владимир Высоцкий - Все песни. Диск 07. 1969-1970\Владимир Высоцкий - Все песни. Диск 07. 1969-1970.wav

     Peak level 99.8 %
     Range quality 100.0 %
     Test CRC ABBCBD4E
     Copy CRC ABBCBD4E
     Copy OK

No errors occurred

 
AccurateRip summary
 
Track  1  not present in database
Track  2  not present in database
Track  3  not present in database
Track  4  not present in database
Track  5  not present in database
Track  6  not present in database
Track  7  not present in database
Track  8  not present in database
Track  9  not present in database
Track 10  not present in database
Track 11  not present in database
Track 12  not present in database
Track 13  not present in database
Track 14  not present in database
Track 15  not present in database
Track 16  not present in database
Track 17  not present in database
Track 18  not present in database
Track 19  not present in database
Track 20  not present in database
Track 21  not present in database
Track 22  not present in database
Track 23  not present in database
Track 24  not present in database
Track 25  not present in database
Track 26  not present in database
Track 27  not present in database
Track 28  not present in database
Track 29  not present in database
Track 30  not present in database
 
None of the tracks are present in the AccurateRip database

End of status report
Download

Скачать (бесплатно и на максимальной скорости)!

Как скачивать  ·   Что такое torrent (торрент)  ·   Рейтинг и ограничения

Сайт не распространяет и не хранит электронные версии произведений, а лишь предоставляет доступ к создаваемому пользователями каталогу ссылок на торрент-файлы, которые содержат только списки хеш-сумм


 

cataman


post 16-Ноя-2011 22:00

 

Продолжительность: 01:17:54


01. Марш шахтеров (1970) (2:01)
02. 'Здесь лапы у елей дрожат на весу...' (1970) (3:34)
03. Свой остров (1970) (2:03)
04. 'Не покупают никакой еды...' (1970) (1:53)
05. Марафон (1970) (1:34)
06. Маски ('На маскараде') (1970) (2:45)
07. Песня про первые ряды (1970) (3:14)
08. 'Она была чиста, как снег зимой...' (1970) (2:51)
09. 'Я теперь в дураках, не уйти мне с земли...' (1971) (3:17)
10. Баллада о брошенном корабле (1971) (4:07)
11. Песенка про прыгуна в длину (1971) (1:48)
12. Вратарь (1971) (3:49)
13. 'Зарыты в нашу память на века...' (1971) (4:13)
14. Певец у микрофона (1971) (4:15)
15. Песня микрофона (1971) (3:12)
16. Одна научная загадка, или Почему аборигены съели Кука (1971, редакция 1979) (2:08)
17. 'Лошадей двадцать тысяч в машины зажаты...' (1971) (3:28)
18. Баллада о бане (1971) (2:49)
19. О фатальных датах и цифрах (1971) (2:24)
20. О моем старшине (1971) (3:00)
21. Горизонт (1971) (3:04)
22. Мои похорона, или Страшный сон очень смелого человека (1971) (2:44)
23. Милицейский протокол (1971) (3:37)
24. Песня конченного человека (1971) (6:58)
25. 'Я все вопросы освещу сполна...' (зима 1970-1971) (3:04)

Код:

Exact Audio Copy V0.99 prebeta 4 from 23. January 2008

EAC extraction logfile from 27. December 2008, 23:44

Владимир Высоцкий / Все песни. Диск 08. 1970-1971

Used drive  : PIONEER DVD-RW  DVR-212D   Adapter: 2  ID: 0

Read mode               : Secure
Utilize accurate stream : Yes
Defeat audio cache      : Yes
Make use of C2 pointers : No

Read offset correction                      : 48
Overread into Lead-In and Lead-Out          : No
Fill up missing offset samples with silence : Yes
Delete leading and trailing silent blocks   : No
Null samples used in CRC calculations       : Yes
Used interface                              : Installed external ASPI interface

Used output format : Internal WAV Routines
Sample format      : 44.100 Hz; 16 Bit; Stereo

TOC of the extracted CD

     Track |   Start  |  Length  | Start sector | End sector
    ---------------------------------------------------------
        1  |  0:00.00 |  2:01.04 |         0    |     9078   
        2  |  2:01.04 |  3:33.71 |      9079    |    25124   
        3  |  5:35.00 |  2:02.42 |     25125    |    34316   
        4  |  7:37.42 |  1:53.12 |     34317    |    42803   
        5  |  9:30.54 |  1:33.47 |     42804    |    49825   
        6  | 11:04.26 |  2:45.19 |     49826    |    62219   
        7  | 13:49.45 |  3:13.69 |     62220    |    76763   
        8  | 17:03.39 |  2:50.53 |     76764    |    89566   
        9  | 19:54.17 |  3:17.28 |     89567    |   104369   
       10  | 23:11.45 |  4:07.29 |    104370    |   122923   
       11  | 27:18.74 |  1:47.61 |    122924    |   131009   
       12  | 29:06.60 |  3:49.30 |    131010    |   148214   
       13  | 32:56.15 |  4:13.37 |    148215    |   167226   
       14  | 37:09.52 |  4:15.18 |    167227    |   186369   
       15  | 41:24.70 |  3:12.10 |    186370    |   200779   
       16  | 44:37.05 |  2:08.16 |    200780    |   210395   
       17  | 46:45.21 |  3:28.09 |    210396    |   226004   
       18  | 50:13.30 |  2:48.65 |    226005    |   238669   
       19  | 53:02.20 |  2:24.16 |    238670    |   249485   
       20  | 55:26.36 |  3:00.30 |    249486    |   263015   
       21  | 58:26.66 |  3:03.74 |    263016    |   276814   
       22  | 61:30.65 |  2:43.54 |    276815    |   289093   
       23  | 64:14.44 |  3:37.12 |    289094    |   305380   
       24  | 67:51.56 |  6:58.37 |    305381    |   336767   
       25  | 74:50.18 |  3:04.06 |    336768    |   350573   

Range status and errors

Selected range

     Filename D:\Lossless Rip\Владимир Высоцкий - Все песни. Диск 08. 1970-1971\Владимир Высоцкий - Все песни. Диск 08. 1970-1971.wav

     Peak level 100.0 %
     Range quality 100.0 %
     Test CRC 94DB99AE
     Copy CRC 94DB99AE
     Copy OK

No errors occurred

 
AccurateRip summary
 
Track  1  not present in database
Track  2  not present in database
Track  3  not present in database
Track  4  not present in database
Track  5  not present in database
Track  6  not present in database
Track  7  not present in database
Track  8  not present in database
Track  9  not present in database
Track 10  not present in database
Track 11  not present in database
Track 12  not present in database
Track 13  not present in database
Track 14  not present in database
Track 15  not present in database
Track 16  not present in database
Track 17  not present in database
Track 18  not present in database
Track 19  not present in database
Track 20  not present in database
Track 21  not present in database
Track 22  not present in database
Track 23  not present in database
Track 24  not present in database
Track 25  not present in database
 
None of the tracks are present in the AccurateRip database

End of status report
Продолжительность: 01:18:48


01. 'Так дымно, что в зеркале нет отраженья...' (1971) (3:24)
02. Случай (1971) (3:03)
03. Песенка про мангустов (1971) (3:08)
04. 'Прошла пора вступлений и прелюдий...' (1971) (2:21)
05. Песня автозавистника (1971) (2:45)
06. 'Целуя знамя в пропыленный шелк...' (1971) (2:59)
07. 'Всем делам моим на суше вопреки...' (1971) (1:44)
08. 'Гул затих, я вышел на подмостки...' (1971, стихи Б.Пастернака, муз. В.Высоцк... (1:04)
09. 'Нет друга, но смогу ли...' (1971, исп. В.Высоцкий и В.Абдулов) (1:13)
10. 'Пытаются противники рекорды повторить...' (1972) (3:23)
11. Честь шахматной короны I. Подготовка (1972) (3:00)
12. Честь шахматной короны II. Игра (1972) (2:58)
13. Белое безмолвие (1972) (2:17)
14. Кони привередливые (1972) (4:57)
15. Песня про белого слона (1972) (2:50)
16. 'Так случилось - мужчины ушли...' (1972) (3:07)
17. Баллада о гипсе (1972) (4:03)
18. 'Проложите, проложите...' (1972) (1:01)
19. Товарищи ученые (1972) (2:47)
20. Жертва телевидения ('Песня про телевизор') (1972) (3:59)
21. 'Оплавляются свечи...' (1972) (1:58)
22. Дорожная история ('Мазы') (1972) (3:13)
23. Песня автомобилиста (1972) (3:43)
24. Чужая колея (1972) (3:35)
25. 'Не заманишь меня на эстрадный концерт...' (1971) (3:35)
26. 'Как все, как это было...' (1971) (1:46)
27. 'Отпустите мне грехи мои тяжкие...' (1971) (3:54)
28. 'У меня друзья очень странные...' (1971) (0:59)

Код:

Exact Audio Copy V0.99 prebeta 4 from 23. January 2008

EAC extraction logfile from 28. December 2008, 1:16

Владимир Высоцкий / Все песни. Диск 09. 1971-1972

Used drive  : Optiarc DVD RW AD-7203S   Adapter: 0  ID: 4

Read mode               : Secure
Utilize accurate stream : Yes
Defeat audio cache      : Yes
Make use of C2 pointers : No

Read offset correction                      : 48
Overread into Lead-In and Lead-Out          : No
Fill up missing offset samples with silence : Yes
Delete leading and trailing silent blocks   : No
Null samples used in CRC calculations       : Yes
Used interface                              : Installed external ASPI interface

Used output format : Internal WAV Routines
Sample format      : 44.100 Hz; 16 Bit; Stereo

TOC of the extracted CD

     Track |   Start  |  Length  | Start sector | End sector
    ---------------------------------------------------------
        1  |  0:00.00 |  3:23.53 |         0    |    15277   
        2  |  3:23.53 |  3:02.66 |     15278    |    28993   
        3  |  6:26.44 |  3:08.24 |     28994    |    43117   
        4  |  9:34.68 |  2:21.23 |     43118    |    53715   
        5  | 11:56.16 |  2:45.01 |     53716    |    66091   
        6  | 14:41.17 |  2:58.71 |     66092    |    79512   
        7  | 17:40.13 |  1:44.33 |     79513    |    87345   
        8  | 19:24.46 |  1:04.07 |     87346    |    92152   
        9  | 20:28.53 |  1:13.14 |     92153    |    97641   
       10  | 21:41.67 |  3:23.29 |     97642    |   112895   
       11  | 25:05.21 |  2:59.67 |    112896    |   126387   
       12  | 28:05.13 |  2:57.42 |    126388    |   139704   
       13  | 31:02.55 |  2:16.74 |    139705    |   149978   
       14  | 33:19.54 |  4:57.25 |    149979    |   172278   
       15  | 38:17.04 |  2:50.19 |    172279    |   185047   
       16  | 41:07.23 |  3:07.07 |    185048    |   199079   
       17  | 44:14.30 |  4:03.21 |    199080    |   217325   
       18  | 48:17.51 |  1:01.27 |    217326    |   221927   
       19  | 49:19.03 |  2:46.56 |    221928    |   234433   
       20  | 52:05.59 |  3:59.20 |    234434    |   252378   
       21  | 56:05.04 |  1:58.28 |    252379    |   261256   
       22  | 58:03.32 |  3:12.48 |    261257    |   275704   
       23  | 61:16.05 |  3:42.42 |    275705    |   292396   
       24  | 64:58.47 |  3:34.67 |    292397    |   308513   
       25  | 68:33.39 |  3:34.67 |    308514    |   324630   
       26  | 72:08.31 |  1:46.23 |    324631    |   332603   
       27  | 73:54.54 |  3:54.08 |    332604    |   350161   
       28  | 77:48.62 |  0:59.18 |    350162    |   354604   

Range status and errors

Selected range

     Filename E:\Lossless\Владимир Высоцкий - Все песни\Владимир Высоцкий - Все песни. Диск 09. 1971-1972\Владимир Высоцкий - Все песни. Диск 09. 1971-1972.wav

     Peak level 100.0 %
     Range quality 100.0 %
     Test CRC 40D62739
     Copy CRC 40D62739
     Copy OK

No errors occurred

 
AccurateRip summary
 
Track  1  not present in database
Track  2  not present in database
Track  3  not present in database
Track  4  not present in database
Track  5  not present in database
Track  6  not present in database
Track  7  not present in database
Track  8  not present in database
Track  9  not present in database
Track 10  not present in database
Track 11  not present in database
Track 12  not present in database
Track 13  not present in database
Track 14  not present in database
Track 15  not present in database
Track 16  not present in database
Track 17  not present in database
Track 18  not present in database
Track 19  not present in database
Track 20  not present in database
Track 21  not present in database
Track 22  not present in database
Track 23  not present in database
Track 24  not present in database
Track 25  not present in database
Track 26  not present in database
Track 27  not present in database
Track 28  not present in database
 
None of the tracks are present in the AccurateRip database

End of status report
Продолжительность: 01:17:29


01. Тот, который не стрелял (1972) (2:53)
02. Натянутый канат ('Песня канатоходца') (1972) (3:39)
03. Черные бушлаты ('Увижу восход') (1972) (4:06)
04. Мы вращаем Землю (1972) (3:26)
05. Тюменская нефть (1972) (4:09)
06. Мишка Шифман (1972) (2:58)
07. Заповедник (1972) (5:56)
08. 'Мосты сгорели, углубились броды...' (1972) (1:09)
09. 'Ни славы и ни коровы...' (1972, стихи А.Вознесенского, муз. В.Высоцкого) (1:37)
10. 'Моя метрика где-то в архиве хранится...' (1972) (1:23)
11. Затяжной прыжок (1973) (5:15)
12. О знаках зодиака ('Неправда, над нами не бездна, не мрак...') (1973) (4:19)
13. Памятник (1973) (4:20)
14. Диалог у телевизора (1973) (3:35)
15. Я из дела ушел (1973) (2:45)
16. Песня Кэрролла (1973) (2:59)
17. Песня Алисы (1973) (2:28)
18. Додо, Алиса и Белый Кролик (1973) (1:36)
19. Марш Антиподов (1973) (1:21)
20. Падение Алисы (1973) (0:52)
21. Про Мэри Энн (1973) (0:40)
22. Песня Алисы про цифры (1973) (1:46)
23. В море слез (1973) (0:51)
24. Песня Мыши (1973) (0:53)
25. Песня Попугая (1973) (1:14)
26. Песенка - представление Робин Гуся (1973) (0:45)
27. Орленок Эд (1973) (0:46)
28. Представление Орленком Эдом Атаки Гризли (1973) (0:07)
29. Странные скачки (1973) (0:48)
30. Песенка лягушонка Джимми и ящерки Билли (1973) (0:21)
31. Песня о планах (1973) (0:41)
32. Лягушонок (1973) (0:41)
33. Песня про ребенка-поросенка (1973) (0:42)
34. Чеширский Кот (1973) (1:13)
35. Мартовский Заяц (1973) (0:25)
36. Шляпник (1973) (0:41)
37. Соня (1973) (0:29)
38. Песня об обиженном Времени (1973) (2:20)
39. Королевское шествие (1973) (0:41)
40. Песня про крохей (1973) (0:40)

Код:

Exact Audio Copy V0.99 prebeta 4 from 23. January 2008

EAC extraction logfile from 28. December 2008, 1:39

Владимир Высоцкий / Все песни. Диск 10. 1972-1973

Used drive  : PIONEER DVD-RW  DVR-212D   Adapter: 2  ID: 0

Read mode               : Secure
Utilize accurate stream : Yes
Defeat audio cache      : Yes
Make use of C2 pointers : No

Read offset correction                      : 48
Overread into Lead-In and Lead-Out          : No
Fill up missing offset samples with silence : Yes
Delete leading and trailing silent blocks   : No
Null samples used in CRC calculations       : Yes
Used interface                              : Installed external ASPI interface

Used output format : Internal WAV Routines
Sample format      : 44.100 Hz; 16 Bit; Stereo

TOC of the extracted CD

     Track |   Start  |  Length  | Start sector | End sector
    ---------------------------------------------------------
        1  |  0:00.00 |  2:53.01 |         0    |    12975   
        2  |  2:53.01 |  3:38.51 |     12976    |    29376   
        3  |  6:31.52 |  4:06.02 |     29377    |    47828   
        4  | 10:37.54 |  3:26.12 |     47829    |    63290   
        5  | 14:03.66 |  4:09.28 |     63291    |    81993   
        6  | 18:13.19 |  2:58.13 |     81994    |    95356   
        7  | 21:11.32 |  5:56.03 |     95357    |   122059   
        8  | 27:07.35 |  1:09.08 |    122060    |   127242   
        9  | 28:16.43 |  1:37.02 |    127243    |   134519   
       10  | 29:53.45 |  1:22.46 |    134520    |   140715   
       11  | 31:16.16 |  5:15.37 |    140716    |   164377   
       12  | 36:31.53 |  4:19.18 |    164378    |   183820   
       13  | 40:50.71 |  4:20.05 |    183821    |   203325   
       14  | 45:11.01 |  3:35.35 |    203326    |   219485   
       15  | 48:46.36 |  2:45.00 |    219486    |   231860   
       16  | 51:31.36 |  2:59.21 |    231861    |   245306   
       17  | 54:30.57 |  2:27.68 |    245307    |   256399   
       18  | 56:58.50 |  1:35.46 |    256400    |   263570   
       19  | 58:34.21 |  1:21.00 |    263571    |   269645   
       20  | 59:55.21 |  0:51.67 |    269646    |   273537   
       21  | 60:47.13 |  0:39.43 |    273538    |   276505   
       22  | 61:26.56 |  1:46.37 |    276506    |   284492   
       23  | 63:13.18 |  0:50.49 |    284493    |   288291   
       24  | 64:03.67 |  0:52.57 |    288292    |   292248   
       25  | 64:56.49 |  1:13.59 |    292249    |   297782   
       26  | 66:10.33 |  0:45.21 |    297783    |   301178   
       27  | 66:55.54 |  0:46.05 |    301179    |   304633   
       28  | 67:41.59 |  0:06.52 |    304634    |   305135   
       29  | 67:48.36 |  0:48.24 |    305136    |   308759   
       30  | 68:36.60 |  0:20.53 |    308760    |   310312   
       31  | 68:57.38 |  0:41.32 |    310313    |   313419   
       32  | 69:38.70 |  0:40.42 |    313420    |   316461   
       33  | 70:19.37 |  0:41.46 |    316462    |   319582   
       34  | 71:01.08 |  1:12.52 |    319583    |   325034   
       35  | 72:13.60 |  0:25.12 |    325035    |   326921   
       36  | 72:38.72 |  0:40.65 |    326922    |   329986   
       37  | 73:19.62 |  0:28.38 |    329987    |   332124   
       38  | 73:48.25 |  2:19.42 |    332125    |   342591   
       39  | 76:07.67 |  0:41.07 |    342592    |   345673   
       40  | 76:48.74 |  0:39.56 |    345674    |   348654   

Range status and errors

Selected range

     Filename D:\Lossless Rip\Владимир Высоцкий - Все песни. Диск 10. 1972-1973\Владимир Высоцкий - Все песни. Диск 10. 1972-1973.wav

     Peak level 100.0 %
     Range quality 100.0 %
     Test CRC 90A81E0C
     Copy CRC 90A81E0C
     Copy OK

No errors occurred

 
AccurateRip summary
 
Track  1  not present in database
Track  2  not present in database
Track  3  not present in database
Track  4  not present in database
Track  5  not present in database
Track  6  not present in database
Track  7  not present in database
Track  8  not present in database
Track  9  not present in database
Track 10  not present in database
Track 11  not present in database
Track 12  not present in database
Track 13  not present in database
Track 14  not present in database
Track 15  not present in database
Track 16  not present in database
Track 17  not present in database
Track 18  not present in database
Track 19  not present in database
Track 20  not present in database
Track 21  not present in database
Track 22  not present in database
Track 23  not present in database
Track 24  not present in database
Track 25  not present in database
Track 26  not present in database
Track 27  not present in database
Track 28  not present in database
Track 29  not present in database
Track 30  not present in database
Track 31  not present in database
Track 32  not present in database
Track 33  not present in database
Track 34  not present in database
Track 35  not present in database
Track 36  not present in database
Track 37  not present in database
Track 38  not present in database
Track 39  not present in database
Track 40  not present in database
 
None of the tracks are present in the AccurateRip database

End of status report
 

cataman


post 16-Ноя-2011 22:08

 

Продолжительность: 01:05:57


01. 'Штормит весь вечер, и пока...' (1973) (3:07)
02. Песенка про козла отпущения (1973) (3:53)
03. Песня о Волге (1973) (3:55)
04. Посадка (1973, стихи В.Высоцкий, муз. Г.Фиртич) (4:13)
05. Куплеты Гусева (1973, стихи В.Высоцкий, муз. Г.Фиртич) (2:07)
06. Дуэт разлученных (1973, стихи В.Высоцкий, муз. Г.Фиртич, исп. В.Высоцкий и К.... (3:35)
07. Че-чет-ка (1973, стихи В.Высоцкий, муз. Г.Фиртич) (2:34)
08. Дуэт Шуры и Ливеровского (1973, стихи В.Высоцкий, муз. Г.Фиртич, исп. В.Высоц... (2:21)
09. Баллада о маленьком человеке (1973) (6:38)
10. Марш футбольной команды 'Медведей' (1973) (3:19)
11. Песня Билла Сиггера (1973) (2:26)
12. Мистерия хиппи (1973) (3:58)
13. Прерванный полет (1973) (4:10)
14. Баллада об оружии (1973) (6:11)
15. Баллада о манекенах (1973) (6:09)
16. Баллада о Кокильоне (1973) (3:24)
17. Баллада об уходе в рай (1973) (3:12)
18. 'Как во городе, во главном...' (1973) (0:46)

Код:

Exact Audio Copy V0.99 prebeta 4 from 23. January 2008

EAC extraction logfile from 28. December 2008, 4:01

Владимир Высоцкий / Все песни. Диск 11. 1973

Used drive  : Optiarc DVD RW AD-7203S   Adapter: 0  ID: 4

Read mode               : Secure
Utilize accurate stream : Yes
Defeat audio cache      : Yes
Make use of C2 pointers : No

Read offset correction                      : 48
Overread into Lead-In and Lead-Out          : No
Fill up missing offset samples with silence : Yes
Delete leading and trailing silent blocks   : No
Null samples used in CRC calculations       : Yes
Used interface                              : Installed external ASPI interface

Used output format : Internal WAV Routines
Sample format      : 44.100 Hz; 16 Bit; Stereo

TOC of the extracted CD

     Track |   Start  |  Length  | Start sector | End sector
    ---------------------------------------------------------
        1  |  0:00.00 |  3:06.45 |         0    |    13994   
        2  |  3:06.45 |  3:53.02 |     13995    |    31471   
        3  |  6:59.47 |  3:54.64 |     31472    |    49085   
        4  | 10:54.36 |  4:13.05 |     49086    |    68065   
        5  | 15:07.41 |  2:07.29 |     68066    |    77619   
        6  | 17:14.70 |  3:34.64 |     77620    |    93733   
        7  | 20:49.59 |  2:34.25 |     93734    |   105308   
        8  | 23:24.09 |  2:20.72 |    105309    |   115880   
        9  | 25:45.06 |  6:37.40 |    115881    |   145695   
       10  | 32:22.46 |  3:18.68 |    145696    |   160613   
       11  | 35:41.39 |  2:26.26 |    160614    |   171589   
       12  | 38:07.65 |  3:57.43 |    171590    |   189407   
       13  | 42:05.33 |  4:09.40 |    189408    |   208122   
       14  | 46:14.73 |  6:10.54 |    208123    |   235926   
       15  | 52:25.52 |  6:08.71 |    235927    |   263597   
       16  | 58:34.48 |  3:24.11 |    263598    |   278908   
       17  | 61:58.59 |  3:12.00 |    278909    |   293308   
       18  | 65:10.59 |  0:45.65 |    293309    |   296748   

Range status and errors

Selected range

     Filename E:\Lossless\Владимир Высоцкий - Все песни\Владимир Высоцкий - Все песни. Диск 11. 1973\Владимир Высоцкий - Все песни. Диск 11. 1973.wav

     Peak level 99.9 %
     Range quality 99.9 %
     Test CRC 374406ED
     Copy CRC 374406ED
     Copy OK

No errors occurred

 
AccurateRip summary
 
Track  1  not present in database
Track  2  not present in database
Track  3  not present in database
Track  4  not present in database
Track  5  not present in database
Track  6  not present in database
Track  7  not present in database
Track  8  not present in database
Track  9  not present in database
Track 10  not present in database
Track 11  not present in database
Track 12  not present in database
Track 13  not present in database
Track 14  not present in database
Track 15  not present in database
Track 16  not present in database
Track 17  not present in database
Track 18  not present in database
 
None of the tracks are present in the AccurateRip database

End of status report
Продолжительность: 01:12:59


01. Песня Солодова ('В дорогу живо! Или в гроб ложись!..') (1973) (2:18)
02. Смотрины (1973) (4:24)
03. Баллада о короткой шее (1973) (3:32)
04. 'Мы все живем как будто, но...' (1973) (2:36)
05. 'В день, когда мы, поддержкой земли заручась...' (1973) (3:59)
06. 'Всему на свете выходят сроки...' (1973) (3:28)
07. 'Был развеселый розовый восход...' (1973) (2:32)
08. Если где-то в чужой, неспокойной ночи...' (1974) (5:46)
09. Расстрел горного эха (1974) (2:20)
10. Очи черные. Погоня (1974) (2:58)
11. Очи черные. Старый дом (1974) (2:48)
12. 'Жили-были на море...' (1974) (3:19)
13. 'Сначала было Слово печали и тоски...' (1974) (2:29)
14. Театрально-тюремный этюд на таганские темы (1974) (4:19)
15. Песня Вани у Марии (1974) (2:32)
16. Частушки ('Гули-гули-гуленьки...') (1974) (1:58)
17. Скоморохи на ярмарке (1974) (5:40)
18. Свадебная (1974) (0:55)
19. Солдатская песня. Походная (1974) (1:06)
20. Солдатская песня. Грустная (1974) (1:13)
21. Серенада Соловья-разбойника (1974) (2:32)
22. Выезд Соловья-разбойника (1974) (1:39)
23. Куплеты нечистой силы (1974) (1:19)
24. Солдат и привидение (1974) (1:25)
25. Песня Марьи (1974) (1:12)
26. Иван да Марья (1974) (0:44)
27. Частушки ('Подходи, народ, смелее...') (1974) (0:51)
28. Песня Гогера-Могера (1973) (3:05)

Код:

Exact Audio Copy V0.99 prebeta 4 from 23. January 2008

EAC extraction logfile from 28. December 2008, 3:34

Владимир Высоцкий / Все песни. Диск 12. 1973-1974

Used drive  : PIONEER DVD-RW  DVR-212D   Adapter: 2  ID: 0

Read mode               : Secure
Utilize accurate stream : Yes
Defeat audio cache      : Yes
Make use of C2 pointers : No

Read offset correction                      : 48
Overread into Lead-In and Lead-Out          : No
Fill up missing offset samples with silence : Yes
Delete leading and trailing silent blocks   : No
Null samples used in CRC calculations       : Yes
Used interface                              : Installed external ASPI interface

Used output format : Internal WAV Routines
Sample format      : 44.100 Hz; 16 Bit; Stereo

TOC of the extracted CD

     Track |   Start  |  Length  | Start sector | End sector
    ---------------------------------------------------------
        1  |  0:00.00 |  2:17.68 |         0    |    10342   
        2  |  2:17.68 |  4:24.11 |     10343    |    30153   
        3  |  6:42.04 |  3:32.33 |     30154    |    46086   
        4  | 10:14.37 |  2:35.61 |     46087    |    57772   
        5  | 12:50.23 |  3:59.31 |     57773    |    75728   
        6  | 16:49.54 |  3:27.38 |     75729    |    91291   
        7  | 20:17.17 |  2:32.00 |     91292    |   102691   
        8  | 22:49.17 |  5:45.42 |    102692    |   128608   
        9  | 28:34.59 |  2:20.25 |    128609    |   139133   
       10  | 30:55.09 |  2:58.09 |    139134    |   152492   
       11  | 33:53.18 |  2:47.71 |    152493    |   165088   
       12  | 36:41.14 |  3:19.35 |    165089    |   180048   
       13  | 40:00.49 |  2:29.07 |    180049    |   191230   
       14  | 42:29.56 |  4:19.29 |    191231    |   210684   
       15  | 46:49.10 |  2:32.14 |    210685    |   222098   
       16  | 49:21.24 |  1:57.49 |    222099    |   230922   
       17  | 51:18.73 |  5:39.46 |    230923    |   256393   
       18  | 56:58.44 |  0:54.39 |    256394    |   260482   
       19  | 57:53.08 |  1:06.28 |    260483    |   265460   
       20  | 58:59.36 |  1:13.20 |    265461    |   270955   
       21  | 60:12.56 |  2:31.73 |    270956    |   282353   
       22  | 62:44.54 |  1:39.36 |    282354    |   289814   
       23  | 64:24.15 |  1:19.17 |    289815    |   295756   
       24  | 65:43.32 |  1:24.55 |    295757    |   302111   
       25  | 67:08.12 |  1:11.47 |    302112    |   307483   
       26  | 68:19.59 |  0:43.60 |    307484    |   310768   
       27  | 69:03.44 |  0:50.48 |    310769    |   314566   
       28  | 69:54.17 |  3:04.63 |    314567    |   328429   

Range status and errors

Selected range

     Filename D:\Lossless Rip\Владимир Высоцкий - Все песни. Диск 12. 1973-1974\Владимир Высоцкий - Все песни. Диск 12. 1973-1974.wav

     Peak level 100.0 %
     Range quality 100.0 %
     Test CRC CCC5BDCE
     Copy CRC CCC5BDCE
     Copy OK

No errors occurred

 
AccurateRip summary
 
Track  1  not present in database
Track  2  not present in database
Track  3  not present in database
Track  4  not present in database
Track  5  not present in database
Track  6  not present in database
Track  7  not present in database
Track  8  not present in database
Track  9  not present in database
Track 10  not present in database
Track 11  not present in database
Track 12  not present in database
Track 13  not present in database
Track 14  not present in database
Track 15  not present in database
Track 16  not present in database
Track 17  not present in database
Track 18  not present in database
Track 19  not present in database
Track 20  not present in database
Track 21  not present in database
Track 22  not present in database
Track 23  not present in database
Track 24  not present in database
Track 25  not present in database
Track 26  not present in database
Track 27  not present in database
Track 28  not present in database
 
None of the tracks are present in the AccurateRip database

End of status report
Продолжительность: 01:16:28


01. Кто за чем бежит (1974) (4:26)
02. Песня про Джеймса Бонда, агента 007 (1974) (3:23)
03. Инструкция перед поездкой за рубеж, или полчаса в месткоме (1974) (4:48)
04. Случай на таможне (1974) (4:20)
05. Памяти Василия Шукшина (1974) (3:00)
06. Песня о времени (1975) (4:18)
07. Песня о вольных стрелках (1975) (1:53)
08. Баллада о Любви (1975) (6:19)
09. Песня о двух погибших лебедях (1975) (2:14)
10. Песня о ненависти (1975) (2:02)
11. Баллада о борьбе (1975) (4:01)
12. Песня о погибшем летчике (1975) (5:01)
13. 'Я еще не в угаре...' (1975) (2:48)
14. '...Мы взлетали как утки...' (1975) (2:34)
15. Письмо к другу, или Зарисовка о Париже (1975) (1:31)
16. Баллада о детстве (1975) (5:57)
17. Разбойничья (1975) (3:41)
18. Купола (1975) (4:48)
19. Гербарий (1976) (5:23)
20. Песня о Судьбе (1976) (3:59)

Код:

Exact Audio Copy V0.99 prebeta 4 from 23. January 2008

EAC extraction logfile from 28. December 2008, 4:54

Владимир Высоцкий / Все песни. Диск 13. 1974-1976

Used drive  : PIONEER DVD-RW  DVR-212D   Adapter: 2  ID: 0

Read mode               : Secure
Utilize accurate stream : Yes
Defeat audio cache      : Yes
Make use of C2 pointers : No

Read offset correction                      : 48
Overread into Lead-In and Lead-Out          : No
Fill up missing offset samples with silence : Yes
Delete leading and trailing silent blocks   : No
Null samples used in CRC calculations       : Yes
Used interface                              : Installed external ASPI interface

Used output format : Internal WAV Routines
Sample format      : 44.100 Hz; 16 Bit; Stereo

TOC of the extracted CD

     Track |   Start  |  Length  | Start sector | End sector
    ---------------------------------------------------------
        1  |  0:00.00 |  4:25.64 |         0    |    19938   
        2  |  4:25.64 |  3:23.12 |     19939    |    35175   
        3  |  7:49.01 |  4:47.68 |     35176    |    56768   
        4  | 12:36.69 |  4:19.73 |     56769    |    76266   
        5  | 16:56.67 |  3:00.34 |     76267    |    89800   
        6  | 19:57.26 |  4:18.13 |     89801    |   109163   
        7  | 24:15.39 |  1:53.06 |    109164    |   117644   
        8  | 26:08.45 |  6:19.35 |    117645    |   146104   
        9  | 32:28.05 |  2:14.09 |    146105    |   156163   
       10  | 34:42.14 |  2:02.25 |    156164    |   165338   
       11  | 36:44.39 |  4:01.34 |    165339    |   183447   
       12  | 40:45.73 |  5:00.50 |    183448    |   205997   
       13  | 45:46.48 |  2:47.67 |    205998    |   218589   
       14  | 48:34.40 |  2:34.25 |    218590    |   230164   
       15  | 51:08.65 |  1:31.09 |    230165    |   236998   
       16  | 52:39.74 |  5:56.63 |    236999    |   263761   
       17  | 58:36.62 |  3:41.04 |    263762    |   280340   
       18  | 62:17.66 |  4:47.43 |    280341    |   301908   
       19  | 67:05.34 |  5:23.31 |    301909    |   326164   
       20  | 72:28.65 |  3:59.33 |    326165    |   344122   

Range status and errors

Selected range

     Filename D:\Lossless Rip\Владимир Высоцкий - Все песни. Диск 13. 1974-1976\Владимир Высоцкий - Все песни. Диск 13. 1974-1976.wav

     Peak level 100.0 %
     Range quality 100.0 %
     Test CRC D90D06F8
     Copy CRC D90D06F8
     Copy OK

No errors occurred

 
AccurateRip summary
 
Track  1  not present in database
Track  2  not present in database
Track  3  not present in database
Track  4  not present in database
Track  5  not present in database
Track  6  not present in database
Track  7  not present in database
Track  8  not present in database
Track  9  not present in database
Track 10  not present in database
Track 11  not present in database
Track 12  not present in database
Track 13  not present in database
Track 14  not present in database
Track 15  not present in database
Track 16  not present in database
Track 17  not present in database
Track 18  not present in database
Track 19  not present in database
Track 20  not present in database
 
None of the tracks are present in the AccurateRip database

End of status report
 

cataman


post 16-Ноя-2011 22:59

 

Продолжительность: 01:10:50
01. Ошибка вышла (1976) (5:20)
02. Никакой ошибки ('Диагноз') (1976) (3:06)
03. История болезни (1976) (4:15)
04. 'Живет живучий парень с нами...' (1976) (1:05)
05. 'Наши помехи эпохе под стать...' (1976) (2:04)
06. 'Этот день будет первым всегда и везде...' (1976) (2:23)
07. 'Вы в огне да и в море навеки не сыщете брода...' (1976) (2:08)
08. Шторм (1976) (2:47)
09. Гимн морю и горам (1976) (2:47)
10. 'Мореплаватель-одиночка' (1976) (2:58)
11. Две судьбы (1977) (7:35)
12. 'Жили-были, спроси у отца...' (1977) (0:56)
13. Притча о Правде и Лжи (1977) (5:01)
14. 'Был побег на рывок...' (1977) (5:39)
15. 'В младенчестве нас матери пугали...' (1977) (3:03)
16. Про речку Вачу и попутчицу Валю (1977) (3:00)
17. Ю.П.Любимову с любовью в шестьдесят его лет от В.Высоцкого (1977) (4:21)
18. Олегу Ефремову (1977) (5:57)
19. Письмо в редакцию телевизионной передачи Очевидное - невероятное из сумасшедшего дома - с Канатчиковой дачи (1977) (4:25)
20. 'Если бы спросили вас о том...' (1976) (0:29)
21. Попытка самоубийства (1977) (1:30)

Код:

Exact Audio Copy V0.99 prebeta 4 from 23. January 2008

EAC extraction logfile from 28. December 2008, 5:59

Владимир Высоцкий / Все песни. Диск 14. 1976-1977

Used drive  : PIONEER DVD-RW  DVR-212D   Adapter: 2  ID: 0

Read mode               : Secure
Utilize accurate stream : Yes
Defeat audio cache      : Yes
Make use of C2 pointers : No

Read offset correction                      : 48
Overread into Lead-In and Lead-Out          : No
Fill up missing offset samples with silence : Yes
Delete leading and trailing silent blocks   : No
Null samples used in CRC calculations       : Yes
Used interface                              : Installed external ASPI interface

Used output format : Internal WAV Routines
Sample format      : 44.100 Hz; 16 Bit; Stereo

TOC of the extracted CD

     Track |   Start  |  Length  | Start sector | End sector
    ---------------------------------------------------------
        1  |  0:00.00 |  5:19.48 |         0    |    23972   
        2  |  5:19.48 |  3:05.66 |     23973    |    37913   
        3  |  8:25.39 |  4:14.69 |     37914    |    57032   
        4  | 12:40.33 |  1:04.57 |     57033    |    61889   
        5  | 13:45.15 |  2:04.08 |     61890    |    71197   
        6  | 15:49.23 |  2:23.16 |     71198    |    81938   
        7  | 18:12.39 |  2:08.19 |     81939    |    91557   
        8  | 20:20.58 |  2:46.72 |     91558    |   104079   
        9  | 23:07.55 |  2:47.37 |    104080    |   116641   
       10  | 25:55.17 |  2:57.56 |    116642    |   129972   
       11  | 28:52.73 |  7:34.51 |    129973    |   164073   
       12  | 36:27.49 |  0:56.11 |    164074    |   168284   
       13  | 37:23.60 |  5:01.33 |    168285    |   190892   
       14  | 42:25.18 |  5:38.58 |    190893    |   216300   
       15  | 48:04.01 |  3:02.39 |    216301    |   229989   
       16  | 51:06.40 |  3:00.35 |    229990    |   243524   
       17  | 54:07.00 |  4:20.66 |    243525    |   263090   
       18  | 58:27.66 |  5:57.10 |    263091    |   289875   
       19  | 64:25.01 |  4:25.22 |    289876    |   309772   
       20  | 68:50.23 |  0:29.37 |    309773    |   311984   
       21  | 69:19.60 |  1:29.67 |    311985    |   318726   

Range status and errors

Selected range

     Filename D:\Lossless Rip\Владимир Высоцкий - Все песни. Диск 14. 1976-1977\Владимир Высоцкий - Все песни. Диск 14. 1976-1977.wav

     Peak level 100.0 %
     Range quality 100.0 %
     Test CRC 376FD454
     Copy CRC 376FD454
     Copy OK

No errors occurred

 
AccurateRip summary
 
Track  1  not present in database
Track  2  not present in database
Track  3  not present in database
Track  4  not present in database
Track  5  not present in database
Track  6  not present in database
Track  7  not present in database
Track  8  not present in database
Track  9  not present in database
Track 10  not present in database
Track 11  not present in database
Track 12  not present in database
Track 13  not present in database
Track 14  not present in database
Track 15  not present in database
Track 16  not present in database
Track 17  not present in database
Track 18  not present in database
Track 19  not present in database
Track 20  not present in database
Track 21  not present in database
 
None of the tracks are present in the AccurateRip database

End of status report
Продолжительность: 01:03:12


01. 'Мне судьба - до последней черты, до креста...' (1978) (3:30)
02. Зарисовка из детства (1978) (2:00)
03. 'Много во мне маминого...' (1978) (1:08)
04. Конец 'Охоты на волков', или Охота с вертолетов (1978) (3:40)
05. Белый вальс (1978) (6:04)
06. Летела жизнь (1978) (4:38)
07. О конце войны (1978) (4:48)
08. Райские яблоки (1978) (5:48)
09. Пожары (1978) (4:52)
10. 'Реальней сновидения и бреда...' (1978) (3:46)
11. Лекция о международном положении, прочитанная человеком, посаженным на 15 суток за мелкое хулиганство, своим сокамерникам (1979) (2:50)
12. Песня командировочного, или 'Через десять лет в 'Аэрофлоте' (1979) (5:38)
13. 'Какой-то вояка...', 'Передо мной любой факир - ну просто карлик...' (1979) (1:24)
14. Письмо торговца ташкентскими фруктами с Центрального рынка (1980) (2:40)
15. 'Пятнадцать лет - не дата, так...' (1979) (5:16)
16. 'Граждане, ах, сколько ж я не пел, но не от лени...' (1980) (1:41)
17. Грусть моя, тоска моя (1980) (3:28)

Код:

Exact Audio Copy V0.99 prebeta 4 from 23. January 2008

EAC extraction logfile from 28. December 2008, 5:53

Владимир Высоцкий / Все песни. Диск 15. 1978-1980

Used drive  : Optiarc DVD RW AD-7203S   Adapter: 0  ID: 4

Read mode               : Secure
Utilize accurate stream : Yes
Defeat audio cache      : Yes
Make use of C2 pointers : No

Read offset correction                      : 48
Overread into Lead-In and Lead-Out          : No
Fill up missing offset samples with silence : Yes
Delete leading and trailing silent blocks   : No
Null samples used in CRC calculations       : Yes
Used interface                              : Installed external ASPI interface

Used output format : Internal WAV Routines
Sample format      : 44.100 Hz; 16 Bit; Stereo

TOC of the extracted CD

     Track |   Start  |  Length  | Start sector | End sector
    ---------------------------------------------------------
        1  |  0:00.00 |  3:30.22 |         0    |    15771   
        2  |  3:30.22 |  2:00.05 |     15772    |    24776   
        3  |  5:30.27 |  1:07.40 |     24777    |    29841   
        4  |  6:37.67 |  3:40.21 |     29842    |    46362   
        5  | 10:18.13 |  6:04.00 |     46363    |    73662   
        6  | 16:22.13 |  4:37.56 |     73663    |    94493   
        7  | 20:59.69 |  4:48.17 |     94494    |   116110   
        8  | 25:48.11 |  5:48.20 |    116111    |   142230   
        9  | 31:36.31 |  4:51.73 |    142231    |   164128   
       10  | 36:28.29 |  3:45.47 |    164129    |   181050   
       11  | 40:14.01 |  2:50.23 |    181051    |   193823   
       12  | 43:04.24 |  5:37.52 |    193824    |   219150   
       13  | 48:42.01 |  1:24.13 |    219151    |   225463   
       14  | 50:06.14 |  2:40.28 |    225464    |   237491   
       15  | 52:46.42 |  5:16.24 |    237492    |   261215   
       16  | 58:02.66 |  1:40.62 |    261216    |   268777   
       17  | 59:43.53 |  3:28.26 |    268778    |   284403   

Range status and errors

Selected range

     Filename E:\Lossless\Владимир Высоцкий - Все песни\Владимир Высоцкий - Все песни. Диск 15. 1978-1980\Владимир Высоцкий - Все песни. Диск 15. 1978-1980.wav

     Peak level 100.0 %
     Range quality 100.0 %
     Test CRC 076919C0
     Copy CRC 076919C0
     Copy OK

No errors occurred

 
AccurateRip summary
 
Track  1  not present in database
Track  2  not present in database
Track  3  not present in database
Track  4  not present in database
Track  5  not present in database
Track  6  not present in database
Track  7  not present in database
Track  8  not present in database
Track  9  not present in database
Track 10  not present in database
Track 11  not present in database
Track 12  not present in database
Track 13  not present in database
Track 14  not present in database
Track 15  not present in database
Track 16  not present in database
Track 17  not present in database
 
None of the tracks are present in the AccurateRip database

End of status report
 

cataman


post 16-Ноя-2011 23:54

 

mixail52 Стараюсь раздавать по максимуму! но наверно у провайдера свои планы на этот счёт. ab
 

cataman


post 17-Ноя-2011 10:13

 

Господа скачавшие не уходите с раздачи! Дайте возможность скачать другим!
Спасибо.
 

cataman


post 19-Ноя-2011 13:16

 

Провайдер скорость занижает, раздаю 24\7.
 
Показать сообщения:    
Ответить на тему

Текущее время: 04-Дек 13:22

Часовой пояс: GMT + 3



Вы не можете начинать темы
Вы не можете отвечать на сообщения
Вы не можете редактировать свои сообщения
Вы не можете удалять свои сообщения
Вы не можете голосовать в опросах
Вы не можете прикреплять файлы к сообщениям
Вы не можете скачивать файлы



В начало страницы  •