Loading...
Error
Регистрация  · 
Имя: Пароль:    
 ·  Забыли пароль?
Правила пользования ресурсом

Сегодня идет свободное скачивание без начисления скачанного

(Pop, Pop Rock, Europop, Synthpop) ABBA Gold - Complete Edition (Gold and More Greatest Hits) 2 SHMCD. 2008, APE (image + .cue), lossless

Ответить на тему
 
Автор Сообщение

cataman


post 31-Июл-2011 11:52

 

Gold - Complete Edition
Gold and More Greatest Hits. 2 SHMCD

Страна: Sweden
Жанр: Pop, Pop Rock, Europop, Synthpop
Год выпуска: 2008
Формат: APE (image + .cue)
Битрейт аудио: lossless
Страна релиза: Japan
Продолжительность: 02:36:39

ABBA (на русском — АББА) — шведский музыкальный квартет, существовавший в 1972—1982 годах и названный по первым буквам имён исполнителей. Является одним из наиболее успешных коллективов за всю историю популярной музыки и самым успешным из числа созданных в Скандинавии: записи группы по всему миру были проданы тиражом более 350 миллионов экземпляров. Синглы квартета занимали первые места в мировых чартах с середины 1970-х (Waterloo) до начала 1980-х (One of Us), а альбомы-сборники возглавляли мировые хит-парады и в 2000-х. Они до сих пор остаются в плей-листах радиостанций, и их альбомы продолжают продаваться по сей день.

Они были первыми представителями континентальной Европы, кто завоевал первые места в чартах всех ведущих англоговорящих стран (США, Великобритания, Канада, Ирландия, Австралия и Новая Зеландия).

Группа ABBA была включена в Зал славы рок-н-ролла 15 марта 2010 года.


Состав:
Агнета Фельтског (швед. Agnetha Åse Fältskog) — вокал (05.04.1950)
Бьёрн Ульвеус (швед. Björn Kristian Ulvaeus) — вокал, гитара (25.04.1945)
Бенни Андерссон (швед. Benny Bror Göran Andersson) — клавиши, вокал (16.12.1946)
Анни-Фрид (Фрида) Лингстад (швед. Anni-Frid Synni Lyngstad) — вокал (15.11.1945)
Треклист:

01. Dancing Queen (3:51)
02. Knowing Me, Knowing You (4:02)
03. Take A Chance On Me (4:07)
04. Mamma Mia (3:31)
05. Lay All Your Love On Me (4:33)
06. Super Trouper (4:12)
07. I Have A Dream (4:44)
08. The Winner Takes It All (4:55)
09. Money, Money, Money (3:07)
10. SOS (3:21)
11. Chiquitita (5:26)
12. Fernando (4:13)
13. Voulez-Vous (5:07)
14. Gimme! Gimme! Gimme! (4:49)
15. Does Your Mother Know (3:14)
16. One Of Us (3:55)
17. The Name Of The Game (4:52)
18. Thank You For The Music (3:49)
19. Waterloo (2:45)

Продолжительность: 01:18:31

Код:

Exact Audio Copy V0.99 prebeta 4 from 23. January 2008

EAC extraction logfile from 30. March 2011, 16:52

ABBA / Gold [Complete Edition]

Used drive  : TOSHIBA DVD-ROM SD-R5002   Adapter: 0  ID: 0

Read mode               : Secure
Utilize accurate stream : Yes
Defeat audio cache      : Yes
Make use of C2 pointers : No

Read offset correction                      : 116
Overread into Lead-In and Lead-Out          : No
Fill up missing offset samples with silence : Yes
Delete leading and trailing silent blocks   : No
Null samples used in CRC calculations       : Yes
Used interface                              : Installed external ASPI interface

Used output format              : Monkey's Audio Lossless Encoder
Selected bitrate                : High Lossless Compression
Quality                         : High
Add ID3 tag                     : Yes
Command line compressor         : C:\Program Files\Monkey's Audio\MAC.exe

TOC of the extracted CD

     Track |   Start  |  Length  | Start sector | End sector
    ---------------------------------------------------------
        1  |  0:00.00 |  3:51.07 |         0    |    17331   
        2  |  3:51.07 |  4:01.61 |     17332    |    35467   
        3  |  7:52.68 |  4:06.61 |     35468    |    53978   
        4  | 11:59.54 |  3:30.72 |     53979    |    69800   
        5  | 15:30.51 |  4:32.38 |     69801    |    90238   
        6  | 20:03.14 |  4:11.59 |     90239    |   109122   
        7  | 24:14.73 |  4:43.40 |    109123    |   130387   
        8  | 28:58.38 |  4:55.21 |    130388    |   152533   
        9  | 33:53.59 |  3:06.59 |    152534    |   166542   
       10  | 37:00.43 |  3:21.27 |    166543    |   181644   
       11  | 40:21.70 |  5:25.68 |    181645    |   206087   
       12  | 45:47.63 |  4:12.57 |    206088    |   225044   
       13  | 50:00.45 |  5:06.59 |    225045    |   248053   
       14  | 55:07.29 |  4:49.12 |    248054    |   269740   
       15  | 59:56.41 |  3:13.42 |    269741    |   284257   
       16  | 63:10.08 |  3:54.43 |    284258    |   301850   
       17  | 67:04.51 |  4:52.34 |    301851    |   323784   
       18  | 71:57.10 |  3:48.46 |    323785    |   340930   
       19  | 75:45.56 |  2:45.23 |    340931    |   353328   

Range status and errors

Selected range

     Filename C:\Documents and Settings\Gold [Complete Edition]\ABBA - Gold [Complete Edition].wav

     Peak level 99.0 %
     Range quality 100.0 %
     Test CRC 4F142B6F
     Copy CRC 4F142B6F
     Copy OK

No errors occurred

End of status report
Треклист:

01. Summer Night City (3:33)
02. Angeleyes (4:21)
03. The Day Before You Came (5:50)
04. Eagle (4:23)
05. I Do, I Do, I Do, I Do, I Do (3:16)
06. So Long (3:06)
07. Honey, Honey (2:55)
08. The Visitors (5:45)
09. Our Last Summer (4:19)
10. On And On And On (3:41)
11. Ring Ring (3:04)
12. I Wonder (Departure) (4:31)
13. Lovelight (3:47)
14. Head Over Heels (3:47)
15. When I Kissed The Teacher (3:01)
16. I Am The City (4:01)
17. Cassandra (4:52)
18. Under Attack (3:46)
19. When All Is Said and Done (3:17)
20. The Way Old Friends Do (2:54)

Продолжительность: 01:18:08

Код:

Exact Audio Copy V0.99 prebeta 4 from 23. January 2008

EAC extraction logfile from 30. March 2011, 15:23

ABBA / More Gold [Complete Edition]

Used drive  : TOSHIBA DVD-ROM SD-R5002   Adapter: 0  ID: 0

Read mode               : Secure
Utilize accurate stream : Yes
Defeat audio cache      : Yes
Make use of C2 pointers : No

Read offset correction                      : 116
Overread into Lead-In and Lead-Out          : No
Fill up missing offset samples with silence : Yes
Delete leading and trailing silent blocks   : No
Null samples used in CRC calculations       : Yes
Used interface                              : Installed external ASPI interface

Used output format              : Monkey's Audio Lossless Encoder
Selected bitrate                : High Lossless Compression
Quality                         : High
Add ID3 tag                     : Yes
Command line compressor         : C:\Program Files\Monkey's Audio\MAC.exe

TOC of the extracted CD

     Track |   Start  |  Length  | Start sector | End sector
    ---------------------------------------------------------
        1  |  0:00.00 |  3:33.10 |         0    |    15984   
        2  |  3:33.10 |  4:20.38 |     15985    |    35522   
        3  |  7:53.48 |  5:49.53 |     35523    |    61750   
        4  | 13:43.26 |  4:23.31 |     61751    |    81506   
        5  | 18:06.57 |  3:15.40 |     81507    |    96171   
        6  | 21:22.22 |  3:05.44 |     96172    |   110090   
        7  | 24:27.66 |  2:55.11 |    110091    |   123226   
        8  | 27:23.02 |  5:45.02 |    123227    |   149103   
        9  | 33:08.04 |  4:19.16 |    149104    |   168544   
       10  | 37:27.20 |  3:40.56 |    168545    |   185100   
       11  | 41:08.01 |  3:04.30 |    185101    |   198930   
       12  | 44:12.31 |  4:31.12 |    198931    |   219267   
       13  | 48:43.43 |  3:46.40 |    219268    |   236257   
       14  | 52:30.08 |  3:46.55 |    236258    |   253262   
       15  | 56:16.63 |  3:01.15 |    253263    |   266852   
       16  | 59:18.03 |  4:01.15 |    266853    |   284942   
       17  | 63:19.18 |  4:52.02 |    284943    |   306844   
       18  | 68:11.20 |  3:46.30 |    306845    |   323824   
       19  | 71:57.50 |  3:16.38 |    323825    |   338562   
       20  | 75:14.13 |  2:54.04 |    338563    |   351616   

Range status and errors

Selected range

     Filename C:\Documents and Settings\More Gold [Complete Edition]\ABBA - More Gold [Complete Edition].wav

     Peak level 98.9 %
     Range quality 100.0 %
     Test CRC 8816F9AB
     Copy CRC 8816F9AB
     Copy OK

No errors occurred

End of status report
Download

Скачать (бесплатно и на максимальной скорости)!

Как скачивать  ·   Что такое torrent (торрент)  ·   Рейтинг и ограничения

Сайт не распространяет и не хранит электронные версии произведений, а лишь предоставляет доступ к создаваемому пользователями каталогу ссылок на торрент-файлы, которые содержат только списки хеш-сумм


 

PPSM


post 31-Июл-2011 18:11

 

Скорости подай.
 

cataman


post 31-Июл-2011 18:14

 

жму нимагу ab
 
Показать сообщения:    
Ответить на тему

Текущее время: 16-Май 19:00

Часовой пояс: GMT + 3



Вы не можете начинать темы
Вы не можете отвечать на сообщения
Вы не можете редактировать свои сообщения
Вы не можете удалять свои сообщения
Вы не можете голосовать в опросах
Вы не можете прикреплять файлы к сообщениям
Вы не можете скачивать файлы



В начало страницы  •