Loading...
Error
Регистрация  · 
Имя: Пароль:    
 ·  Забыли пароль?
Правила пользования ресурсом

Сегодня идет свободное скачивание без начисления скачанного

Реальные пацаны. (Сезон: 1 Серии: 1-31 из 33 + DVD Bonus) (Жанна Кадникова) [2010, Комедийный сериал, DVDRip-AVC]

Ответить на тему
 
Автор Сообщение

artur87


post 31-Мар-2011 18:16

 

Реальные пацаны (31 серия + DVD Bonus)


Год выпуска: 2010
Производство: "Гуд Стори Медиа" по заказу "ТНТ-Телесеть"
Жанр: Комедийный сериал
Продолжительность: 00:24:00
Режиссер: Жанна Кадникова
В ролях: Николай Наумов, Антон Богданов, Владимир Селиванов, Станислав Тляшев, Игорь Ознобихин, Марина Федункив, Валентина Мазунина, Алексей Базанов, Зоя Бербер, Армен Бежанян, Мария Шекунова
Описание: Первый антигламурный ситком.
Золушка усиленно работала, получила приглашение на бал, потом влюбилась в принца и устроила себе счастливую жизнь.
Колян из Перми усиленно воровал канализационные люки, получил за это условный срок, потом решил исправиться, влюбился в богатую девушку и устроил себе жизнь веселую.
Про Золушку сняли множество фильмов и мультиков.
Про Коляна сняли «Реальных пацанов».
«Реальные пацаны» - это новый эксперимент ТНТ на территории нового юмора. Канал, который уже несколько лет испытывает зрителя на прочность - а вот над этим можно смеяться? а так можно? а вот так? - снова предъявляет аудитории проект, аналогов которому на отечественном телевидении не было и, скорее всего, не будет. Авторы «Реальных пацанов» вошли в мир, где существуют миллионы наших соотечественников, - мир с коврами на стене, участковыми за стеной и пацанами в автосервисах. И сняли очень смешной, очень добрый и очень правдивый ситком о том, как этот мир живет. Отойдя от реальности ровно на ту дистанцию, с которой уже можно улыбаться и не зажимать нос.
С 8 ноября в эфире ТНТ - Колян из Перми. Он встал на путь исправления и старается жить честно. Даже устроился на работу продавцом в салон связи, где тайно презирает напарника за обтягивающие маечки и нетрадиционный лоск. Помимо духовного роста, жизнь Коляна осложняют любовные терзания. Он встречается с девушкой, которая работает гигантской плюшевой таблеткой возле районной аптеки. А мечтает о девушке, которая учится в университете и летает на шопинг в Лондон. А еще жизнь Коляна осложняют друзья. Они не хотят, чтобы Колян исправлялся, они хотят все вместе кататься по району на тачках, лазить в общежитие к будущим медсестрам и отжимать мелочь у школьников.
Вся авторская группа и актеры «Пацанов» родом из Перми, где и снимается сериал. Для того, чтобы сделать «Пацанов» более правдивыми, авторы отказались от прописанного сценария. Диалоги на съемочной площадке придумывают сообща актеры, режиссер и продюсеры. Основной прием в «Пацанах» - это камера, которая как будто бы следует за Коляном везде и показывает его жизнь, ничего не скрывая.


Качество: DVDRip-AVC
Формат: MKV
Видео кодек: H.264
Аудио кодек: AC3
Видео 2-31 Анаморф: AVC; 720x576 (4:3); 1116 Kbps; 25 fps; 0,108 bpp
Видео 1 Серия и бонус: AVC; 720x540 (4:3); 1109 Kbps; 25 fps; 0,114 bpp
Аудио: Russian; AC3; 128 Kbps; CBR; 2 ch
Код: Общее
Формат : Matroska
Размер файла : 224 Мбайт
Продолжительность : 24 м.
Общий поток : 1270 Кбит/сек
Дата кодирования : UTC 2011-02-05 07:30:11
Программа кодирования : mkvmerge v4.0.0 ('The Stars were mine') built on Jun 6 2010 16:18:42
Библиотека кодирования : libebml v1.0.0 + libmatroska v1.0.0
Видео
Идентификатор : 1
Формат : AVC
Формат/Информация : Advanced Video Codec
Профиль формата : [email protected]
Параметр CABAC формата : Да
Параметр ReFrames формата : 6 кадры
Идентификатор кодека : V_MPEG4/ISO/AVC
Продолжительность : 24 м.
Битрейт : 1140 Кбит/сек
Ширина : 720 пикс.
Высота : 576 пикс.
Соотношение сторон : 4:3
Частота кадров : 25,000 кадр/сек
Стандарт вещания : PAL
Цветовое пространство : YUV
Подвыборка цветности : 4:2:0
Битовая глубина : 8 бит
Тип развёртки : Прогрессивная
Бит/(Пиксели*Кадры) : 0.110
Размер потока : 197 Мбайт (88%)
Заголовок : DVDRip.DVD9.by.WoRG
Библиотека кодирования : x264 core 112 r1867 22bfd31
Настройки программы : cabac=1 / ref=6 / deblock=1:1:1 / analyse=0x3:0x133 / me=umh / subme=10 / psy=1 / psy_rd=1.00:0.15 / mixed_ref=1 / me_range=24 / chroma_me=1 / trellis=2 / 8x8dct=1 / cqm=0 / deadzone=21,11 / fast_pskip=1 / chroma_qp_offset=-3 / threads=3 / sliced_threads=0 / nr=0 / decimate=1 / interlaced=0 / constrained_intra=0 / bframes=8 / b_pyramid=2 / b_adapt=2 / b_bias=0 / direct=3 / weightb=1 / open_gop=0 / weightp=2 / keyint=250 / keyint_min=25 / scenecut=40 / intra_refresh=0 / rc_lookahead=60 / rc=2pass / mbtree=1 / bitrate=1140 / ratetol=1.0 / qcomp=0.60 / qpmin=10 / qpmax=51 / qpstep=4 / cplxblur=20.0 / qblur=0.5 / ip_ratio=1.40 / aq=1:1.00
Язык : English
Аудио
Идентификатор : 2
Формат : AC-3
Формат/Информация : Audio Coding 3
Расширение режима : CM (complete main)
Идентификатор кодека : A_AC3
Продолжительность : 24 м.
Вид битрейта : Постоянный
Битрейт : 128 Кбит/сек
Канал(ы) : 2 канала(ов)
Расположение каналов : Front: L R
Частота : 48,0 КГц
Битовая глубина : 16 бит
Метод сжатия : С потерями
Размер потока : 22,5 Мбайт (10%)
Заголовок : TnT
Язык : Russian
2-31 серию

1 серия, бонус
Download

Скачать (бесплатно и на максимальной скорости)!

Как скачивать  ·   Что такое torrent (торрент)  ·   Рейтинг и ограничения

Сайт не распространяет и не хранит электронные версии произведений, а лишь предоставляет доступ к создаваемому пользователями каталогу ссылок на торрент-файлы, которые содержат только списки хеш-сумм


 
Показать сообщения:    
Ответить на тему

Текущее время: 16-Май 17:52

Часовой пояс: GMT + 3



Вы не можете начинать темы
Вы не можете отвечать на сообщения
Вы не можете редактировать свои сообщения
Вы не можете удалять свои сообщения
Вы не можете голосовать в опросах
Вы не можете прикреплять файлы к сообщениям
Вы не можете скачивать файлы



В начало страницы  •