Loading...
Error
Регистрация  · 
Имя: Пароль:    
 ·  Забыли пароль?
Правила пользования ресурсом

Сегодня идет свободное скачивание без начисления скачанного

С.Рахманинов - A.Warenberg - Piano Concerto "№5" (Переложение Симфонии №2)

Ответить на тему
 
Автор Сообщение

singer


post 11-Мар-2011 23:42

 

С.Рахманинов - A.Warenberg
Piano Concerto "№5"
(Переложение Симфонии №2)

Жанр: Classical
Страна-производитель диска: Чехия
Год издания диска: 2007
Издатель (лейбл): Brilliant Classics
Дата записи: 2007
Аудиокодек: APE
Тип рипа: image+.cue
Битрейт аудио: lossless
Наличие сканов в содержимом раздачи: да
Треклист:
1.Largo-Allegro moderato 18'56
2.Adagio-molto allegro 13'15
3.Allegro vivace 10'05

Исполнители:

Wolfram Schmitt-Leonardy, piano
Janacek Philharmonic Orchestra
Theodore Kuchar
, conductor

Запись - 26-28 июня 2007 года. Мировая премьера!!!
При поддержке внука великого композитора!
Exact Audio Copy V1.0 beta 1 from 15. November 2010

EAC extraction logfile from 11. March 2011, 22:12

Wolfram Schmitt-Leonardy (piano), Janacek Philharmonic Orchestra & Theodore Kuchar / Rachmaninoff - Piano Concerto "No.5"

Used drive : HL-DT-STDVDRAM GH22NS50 Adapter: 0 ID: 0

Read mode : Secure
Utilize accurate stream : Yes
Defeat audio cache : Yes
Make use of C2 pointers : No

Read offset correction : 667
Overread into Lead-In and Lead-Out : No
Fill up missing offset samples with silence : Yes
Delete leading and trailing silent blocks : No
Null samples used in CRC calculations : Yes
Used interface : Installed external ASPI interface

Used output format : Internal WAV Routines
Sample format : 44.100 Hz; 16 Bit; Stereo

TOC of the extracted CD

Track | Start | Length | Start sector | End sector
---------------------------------------------------------
1 | 0:00.00 | 18:36.73 | 0 | 83772
2 | 18:36.73 | 13:11.40 | 83773 | 143137
3 | 31:48.38 | 9:57.10 | 143138 | 187922

Range status and errors

Selected range

Filename E:\Новая папка\Wolfram Schmitt-Leonardy (piano), Janacek Philharmonic Orchestra & Theodore Kuchar - Rachmaninoff - Piano Concerto ''No.5''.wav

Peak level 100.0 %
Extraction speed 10.7 X
Range quality 100.0 %
Copy CRC 2833197D
Copy OK

No errors occurred

End of status report
Download

Скачать (бесплатно и на максимальной скорости)!

Как скачивать  ·   Что такое torrent (торрент)  ·   Рейтинг и ограничения

Сайт не распространяет и не хранит электронные версии произведений, а лишь предоставляет доступ к создаваемому пользователями каталогу ссылок на торрент-файлы, которые содержат только списки хеш-сумм


 
Показать сообщения:    
Ответить на тему

Текущее время: 06-Дек 02:26

Часовой пояс: GMT + 3



Вы не можете начинать темы
Вы не можете отвечать на сообщения
Вы не можете редактировать свои сообщения
Вы не можете удалять свои сообщения
Вы не можете голосовать в опросах
Вы не можете прикреплять файлы к сообщениям
Вы не можете скачивать файлы



В начало страницы  •